  0
SECTION
  2
HEADER
  9
$ACADVER
  1
AC1015
  9
$ACADMAINTVER
 70
    10
  9
$DWGCODEPAGE
  3
ANSI_932
  9
$INSBASE
 10
0.0
 20
0.0
 30
0.0
  9
$EXTMIN
 10
-187.1134758423905
 20
-672.1667135812681
 30
0.0
  9
$EXTMAX
 10
584.9999999999994
 20
437.5085085369581
 30
0.0
  9
$LIMMIN
 10
-296.316999476111
 20
-370.7034300441653
  9
$LIMMAX
 10
623.3128432133979
 20
328.6261559379898
  9
$ORTHOMODE
 70
     1
  9
$REGENMODE
 70
     1
  9
$FILLMODE
 70
     1
  9
$QTEXTMODE
 70
     0
  9
$MIRRTEXT
 70
     1
  9
$LTSCALE
 40
10.0
  9
$ATTMODE
 70
     1
  9
$TEXTSIZE
 40
5.0
  9
$TRACEWID
 40
0.05
  9
$TEXTSTYLE
  7
STANDARD1
  9
$CLAYER
  8
10
  9
$CELTYPE
  6
CONTINUOUS
  9
$CECOLOR
 62
   256
  9
$CELTSCALE
 40
1.0
  9
$DISPSILH
 70
     0
  9
$DIMSCALE
 40
1.0
  9
$DIMASZ
 40
2.0
  9
$DIMEXO
 40
3.0
  9
$DIMDLI
 40
0.5
  9
$DIMRND
 40
0.0
  9
$DIMDLE
 40
0.0
  9
$DIMEXE
 40
0.5
  9
$DIMTP
 40
0.0
  9
$DIMTM
 40
0.0
  9
$DIMTXT
 40
6.0
  9
$DIMCEN
 40
0.09
  9
$DIMTSZ
 40
0.0
  9
$DIMTOL
 70
     0
  9
$DIMLIM
 70
     0
  9
$DIMTIH
 70
     0
  9
$DIMTOH
 70
     1
  9
$DIMSE1
 70
     0
  9
$DIMSE2
 70
     0
  9
$DIMTAD
 70
     3
  9
$DIMZIN
 70
    12
  9
$DIMBLK
  1
OPEN
  9
$DIMASO
 70
     1
  9
$DIMSHO
 70
     1
  9
$DIMPOST
  1

  9
$DIMAPOST
  1

  9
$DIMALT
 70
     0
  9
$DIMALTD
 70
     2
  9
$DIMALTF
 40
25.4
  9
$DIMLFAC
 40
1.0
  9
$DIMTOFL
 70
     0
  9
$DIMTVP
 40
0.0
  9
$DIMTIX
 70
     0
  9
$DIMSOXD
 70
     0
  9
$DIMSAH
 70
     0
  9
$DIMBLK1
  1

  9
$DIMBLK2
  1

  9
$DIMSTYLE
  2
STANDARD1
  9
$DIMCLRD
 70
     0
  9
$DIMCLRE
 70
     0
  9
$DIMCLRT
 70
     0
  9
$DIMTFAC
 40
1.0
  9
$DIMGAP
 40
3.0
  9
$DIMJUST
 70
     0
  9
$DIMSD1
 70
     0
  9
$DIMSD2
 70
     0
  9
$DIMTOLJ
 70
     1
  9
$DIMTZIN
 70
     0
  9
$DIMALTZ
 70
     0
  9
$DIMALTTZ
 70
     0
  9
$DIMUPT
 70
     0
  9
$DIMDEC
 70
     1
  9
$DIMTDEC
 70
     1
  9
$DIMALTU
 70
     2
  9
$DIMALTTD
 70
     2
  9
$DIMTXSTY
  7
STANDARD
  9
$DIMAUNIT
 70
     0
  9
$DIMADEC
 70
     0
  9
$DIMALTRND
 40
0.0
  9
$DIMAZIN
 70
     0
  9
$DIMDSEP
 70
    46
  9
$DIMATFIT
 70
     2
  9
$DIMFRAC
 70
     0
  9
$DIMLDRBLK
  1
OPEN
  9
$DIMLUNIT
 70
     2
  9
$DIMLWD
 70
    -2
  9
$DIMLWE
 70
    -2
  9
$DIMTMOVE
 70
     0
  9
$LUNITS
 70
     2
  9
$LUPREC
 70
     4
  9
$SKETCHINC
 40
0.1
  9
$FILLETRAD
 40
0.0
  9
$AUNITS
 70
     0
  9
$AUPREC
 70
     0
  9
$MENU
  1
.
  9
$ELEVATION
 40
0.0
  9
$PELEVATION
 40
0.0
  9
$THICKNESS
 40
0.0
  9
$LIMCHECK
 70
     0
  9
$CHAMFERA
 40
0.0
  9
$CHAMFERB
 40
0.0
  9
$CHAMFERC
 40
0.0
  9
$CHAMFERD
 40
0.0
  9
$SKPOLY
 70
     0
  9
$TDCREATE
 40
2452286.555658657
  9
$TDUCREATE
 40
2452286.180658657
  9
$TDUPDATE
 40
2455952.498723229
  9
$TDUUPDATE
 40
2455952.123723229
  9
$TDINDWG
 40
1.5549634606
  9
$TDUSRTIMER
 40
1.5549605440
  9
$USRTIMER
 70
     1
  9
$ANGBASE
 50
0.0
  9
$ANGDIR
 70
     0
  9
$PDMODE
 70
     0
  9
$PDSIZE
 40
0.0
  9
$PLINEWID
 40
0.0
  9
$SPLFRAME
 70
     0
  9
$SPLINETYPE
 70
     6
  9
$SPLINESEGS
 70
     8
  9
$HANDSEED
  5
D4ED
  9
$SURFTAB1
 70
     6
  9
$SURFTAB2
 70
     6
  9
$SURFTYPE
 70
     6
  9
$SURFU
 70
     6
  9
$SURFV
 70
     6
  9
$UCSBASE
  2

  9
$UCSNAME
  2

  9
$UCSORG
 10
0.0
 20
0.0
 30
0.0
  9
$UCSXDIR
 10
1.0
 20
0.0
 30
0.0
  9
$UCSYDIR
 10
0.0
 20
1.0
 30
0.0
  9
$UCSORTHOREF
  2

  9
$UCSORTHOVIEW
 70
     0
  9
$UCSORGTOP
 10
0.0
 20
0.0
 30
0.0
  9
$UCSORGBOTTOM
 10
0.0
 20
0.0
 30
0.0
  9
$UCSORGLEFT
 10
0.0
 20
0.0
 30
0.0
  9
$UCSORGRIGHT
 10
0.0
 20
0.0
 30
0.0
  9
$UCSORGFRONT
 10
0.0
 20
0.0
 30
0.0
  9
$UCSORGBACK
 10
0.0
 20
0.0
 30
0.0
  9
$PUCSBASE
  2

  9
$PUCSNAME
  2

  9
$PUCSORG
 10
0.0
 20
0.0
 30
0.0
  9
$PUCSXDIR
 10
1.0
 20
0.0
 30
0.0
  9
$PUCSYDIR
 10
0.0
 20
1.0
 30
0.0
  9
$PUCSORTHOREF
  2

  9
$PUCSORTHOVIEW
 70
     0
  9
$PUCSORGTOP
 10
0.0
 20
0.0
 30
0.0
  9
$PUCSORGBOTTOM
 10
0.0
 20
0.0
 30
0.0
  9
$PUCSORGLEFT
 10
0.0
 20
0.0
 30
0.0
  9
$PUCSORGRIGHT
 10
0.0
 20
0.0
 30
0.0
  9
$PUCSORGFRONT
 10
0.0
 20
0.0
 30
0.0
  9
$PUCSORGBACK
 10
0.0
 20
0.0
 30
0.0
  9
$USERI1
 70
     0
  9
$USERI2
 70
     0
  9
$USERI3
 70
     0
  9
$USERI4
 70
     0
  9
$USERI5
 70
     0
  9
$USERR1
 40
0.0
  9
$USERR2
 40
0.0
  9
$USERR3
 40
0.0
  9
$USERR4
 40
0.0
  9
$USERR5
 40
0.0
  9
$WORLDVIEW
 70
     1
  9
$SHADEDGE
 70
     3
  9
$SHADEDIF
 70
    70
  9
$TILEMODE
 70
     1
  9
$MAXACTVP
 70
    48
  9
$PINSBASE
 10
0.0
 20
0.0
 30
0.0
  9
$PLIMCHECK
 70
     0
  9
$PEXTMIN
 10
4.273573
 20
5.205245999999998
 30
0.0
  9
$PEXTMAX
 10
194.610095
 20
283.0697009999996
 30
0.0
  9
$PLIMMIN
 10
-5.873749
 20
-5.87375
  9
$PLIMMAX
 10
204.099579
 20
291.1369009999999
  9
$UNITMODE
 70
     0
  9
$VISRETAIN
 70
     1
  9
$PLINEGEN
 70
     0
  9
$PSLTSCALE
 70
     1
  9
$TREEDEPTH
 70
  3020
  9
$CMLSTYLE
  2
STANDARD
  9
$CMLJUST
 70
     0
  9
$CMLSCALE
 40
1.0
  9
$PROXYGRAPHICS
 70
     1
  9
$MEASUREMENT
 70
     0
  9
$CELWEIGHT
370
    -1
  9
$ENDCAPS
280
     0
  9
$JOINSTYLE
280
     0
  9
$LWDISPLAY
290
     0
  9
$INSUNITS
 70
     0
  9
$HYPERLINKBASE
  1

  9
$STYLESHEET
  1
MONOCHROME.CTB
  9
$XEDIT
290
     1
  9
$CEPSNTYPE
380
     0
  9
$PSTYLEMODE
290
     1
  9
$FINGERPRINTGUID
  2

  9
$VERSIONGUID
  2
{E3D3C96E-702F-43D5-8E3D-9BB890E7FA5B}
  9
$EXTNAMES
290
     1
  9
$PSVPSCALE
 40
0.0
  9
$OLESTARTUP
290
     0
  0
ENDSEC
  0
SECTION
  2
CLASSES
  0
CLASS
  1
ACDBDICTIONARYWDFLT
  2
AcDbDictionaryWithDefault
  3
AutoCAD 2000
 90
        0
280
     0
281
     0
  0
CLASS
  1
ACDBPLACEHOLDER
  2
AcDbPlaceHolder
  3
AutoCAD 2000
 90
        0
280
     0
281
     0
  0
CLASS
  1
LAYOUT
  2
AcDbLayout
  3
AutoCAD 2000
 90
        0
280
     0
281
     0
  0
CLASS
  1
LONG_TRANSACTION
  2
AcDbLongTransaction
  3
AutoCAD 2000
 90
    32768
280
     0
281
     0
  0
CLASS
  1
LWPOLYLINE
  2
AcDbPolyline
  3
AutoCAD 2000
 90
    32768
280
     0
281
     1
  0
CLASS
  1
HATCH
  2
AcDbHatch
  3
AutoCAD 2000
 90
    32768
280
     0
281
     1
  0
CLASS
  1
XRECORD
  2
AcDbXrecord
  3
AutoCAD 2000
 90
    32768
280
     0
281
     0
  0
CLASS
  1
LONG_TRANSACTION
  2
AcDbLongTransaction
  3
AutoCAD 2000
 90
    32768
280
     0
281
     0
  0
CLASS
  1
LWPOLYLINE
  2
AcDbPolyline
  3
AutoCAD 2000
 90
    32768
280
     0
281
     1
  0
CLASS
  1
HATCH
  2
AcDbHatch
  3
AutoCAD 2000
 90
    32768
280
     0
281
     1
  0
CLASS
  1
XRECORD
  2
AcDbXrecord
  3
AutoCAD 2000
 90
    32768
280
     0
281
     0
  0
CLASS
  1
LONG_TRANSACTION
  2
AcDbLongTransaction
  3
AutoCAD 2000
 90
    32768
280
     0
281
     0
  0
CLASS
  1
LWPOLYLINE
  2
AcDbPolyline
  3
AutoCAD 2000
 90
    32768
280
     0
281
     1
  0
CLASS
  1
HATCH
  2
AcDbHatch
  3
AutoCAD 2000
 90
    32768
280
     0
281
     1
  0
CLASS
  1
XRECORD
  2
AcDbXrecord
  3
AutoCAD 2000
 90
    32768
280
     0
281
     0
  0
CLASS
  1
LONG_TRANSACTION
  2
AcDbLongTransaction
  3
AutoCAD 2000
 90
    32768
280
     0
281
     0
  0
CLASS
  1
LWPOLYLINE
  2
AcDbPolyline
  3
AutoCAD 2000
 90
    32768
280
     0
281
     1
  0
CLASS
  1
HATCH
  2
AcDbHatch
  3
AutoCAD 2000
 90
    32768
280
     0
281
     1
  0
CLASS
  1
XRECORD
  2
AcDbXrecord
  3
AutoCAD 2000
 90
    32768
280
     0
281
     0
  0
CLASS
  1
LONG_TRANSACTION
  2
AcDbLongTransaction
  3
AutoCAD 2000
 90
    32768
280
     0
281
     0
  0
CLASS
  1
LWPOLYLINE
  2
AcDbPolyline
  3
AutoCAD 2000
 90
    32768
280
     0
281
     1
  0
CLASS
  1
HATCH
  2
AcDbHatch
  3
AutoCAD 2000
 90
    32768
280
     0
281
     1
  0
CLASS
  1
XRECORD
  2
AcDbXrecord
  3
AutoCAD 2000
 90
    32768
280
     0
281
     0
  0
CLASS
  1
LONG_TRANSACTION
  2
AcDbLongTransaction
  3
AutoCAD 2000
 90
    32768
280
     0
281
     0
  0
CLASS
  1
LWPOLYLINE
  2
AcDbPolyline
  3
AutoCAD 2000
 90
    32768
280
     0
281
     1
  0
CLASS
  1
HATCH
  2
AcDbHatch
  3
AutoCAD 2000
 90
    32768
280
     0
281
     1
  0
CLASS
  1
XRECORD
  2
AcDbXrecord
  3
AutoCAD 2000
 90
    32768
280
     0
281
     0
  0
CLASS
  1
LONG_TRANSACTION
  2
AcDbLongTransaction
  3
AutoCAD 2000
 90
    32768
280
     0
281
     0
  0
CLASS
  1
LWPOLYLINE
  2
AcDbPolyline
  3
AutoCAD 2000
 90
    32768
280
     0
281
     1
  0
CLASS
  1
HATCH
  2
AcDbHatch
  3
AutoCAD 2000
 90
    32768
280
     0
281
     1
  0
CLASS
  1
XRECORD
  2
AcDbXrecord
  3
AutoCAD 2000
 90
    32768
280
     0
281
     0
  0
CLASS
  1
LONG_TRANSACTION
  2
AcDbLongTransaction
  3
AutoCAD 2000
 90
    32768
280
     0
281
     0
  0
CLASS
  1
LWPOLYLINE
  2
AcDbPolyline
  3
AutoCAD 2000
 90
    32768
280
     0
281
     1
  0
CLASS
  1
HATCH
  2
AcDbHatch
  3
AutoCAD 2000
 90
    32768
280
     0
281
     1
  0
CLASS
  1
XRECORD
  2
AcDbXrecord
  3
AutoCAD 2000
 90
    32768
280
     0
281
     0
  0
CLASS
  1
LONG_TRANSACTION
  2
AcDbLongTransaction
  3
AutoCAD 2000
 90
    32768
280
     0
281
     0
  0
CLASS
  1
LWPOLYLINE
  2
AcDbPolyline
  3
AutoCAD 2000
 90
    32768
280
     0
281
     1
  0
CLASS
  1
HATCH
  2
AcDbHatch
  3
AutoCAD 2000
 90
    32768
280
     0
281
     1
  0
CLASS
  1
XRECORD
  2
AcDbXrecord
  3
AutoCAD 2000
 90
    32768
280
     0
281
     0
  0
CLASS
  1
LONG_TRANSACTION
  2
AcDbLongTransaction
  3
AutoCAD 2000
 90
    32768
280
     0
281
     0
  0
CLASS
  1
LWPOLYLINE
  2
AcDbPolyline
  3
AutoCAD 2000
 90
    32768
280
     0
281
     1
  0
CLASS
  1
HATCH
  2
AcDbHatch
  3
AutoCAD 2000
 90
    32768
280
     0
281
     1
  0
CLASS
  1
XRECORD
  2
AcDbXrecord
  3
AutoCAD 2000
 90
    32768
280
     0
281
     0
  0
CLASS
  1
LONG_TRANSACTION
  2
AcDbLongTransaction
  3
AutoCAD 2000
 90
    32768
280
     0
281
     0
  0
CLASS
  1
LWPOLYLINE
  2
AcDbPolyline
  3
AutoCAD 2000
 90
    32768
280
     0
281
     1
  0
CLASS
  1
HATCH
  2
AcDbHatch
  3
AutoCAD 2000
 90
    32768
280
     0
281
     1
  0
CLASS
  1
XRECORD
  2
AcDbXrecord
  3
AutoCAD 2000
 90
    32768
280
     0
281
     0
  0
CLASS
  1
LONG_TRANSACTION
  2
AcDbLongTransaction
  3
AutoCAD 2000
 90
    32768
280
     0
281
     0
  0
CLASS
  1
LWPOLYLINE
  2
AcDbPolyline
  3
AutoCAD 2000
 90
    32768
280
     0
281
     1
  0
CLASS
  1
HATCH
  2
AcDbHatch
  3
AutoCAD 2000
 90
    32768
280
     0
281
     1
  0
CLASS
  1
XRECORD
  2
AcDbXrecord
  3
AutoCAD 2000
 90
    32768
280
     0
281
     0
  0
CLASS
  1
LONG_TRANSACTION
  2
AcDbLongTransaction
  3
AutoCAD 2000
 90
    32768
280
     0
281
     0
  0
CLASS
  1
LWPOLYLINE
  2
AcDbPolyline
  3
AutoCAD 2000
 90
    32768
280
     0
281
     1
  0
CLASS
  1
HATCH
  2
AcDbHatch
  3
AutoCAD 2000
 90
    32768
280
     0
281
     1
  0
CLASS
  1
XRECORD
  2
AcDbXrecord
  3
AutoCAD 2000
 90
    32768
280
     0
281
     0
  0
CLASS
  1
LONG_TRANSACTION
  2
AcDbLongTransaction
  3
AutoCAD 2000
 90
    32768
280
     0
281
     0
  0
CLASS
  1
LWPOLYLINE
  2
AcDbPolyline
  3
AutoCAD 2000
 90
    32768
280
     0
281
     1
  0
CLASS
  1
HATCH
  2
AcDbHatch
  3
AutoCAD 2000
 90
    32768
280
     0
281
     1
  0
CLASS
  1
XRECORD
  2
AcDbXrecord
  3
AutoCAD 2000
 90
    32768
280
     0
281
     0
  0
CLASS
  1
LONG_TRANSACTION
  2
AcDbLongTransaction
  3
AutoCAD 2000
 90
    32768
280
     0
281
     0
  0
CLASS
  1
LWPOLYLINE
  2
AcDbPolyline
  3
AutoCAD 2000
 90
    32768
280
     0
281
     1
  0
CLASS
  1
HATCH
  2
AcDbHatch
  3
AutoCAD 2000
 90
    32768
280
     0
281
     1
  0
CLASS
  1
XRECORD
  2
AcDbXrecord
  3
AutoCAD 2000
 90
    32768
280
     0
281
     0
  0
CLASS
  1
LONG_TRANSACTION
  2
AcDbLongTransaction
  3
AutoCAD 2000
 90
    32768
280
     0
281
     0
  0
CLASS
  1
LWPOLYLINE
  2
AcDbPolyline
  3
AutoCAD 2000
 90
    32768
280
     0
281
     1
  0
CLASS
  1
HATCH
  2
AcDbHatch
  3
AutoCAD 2000
 90
    32768
280
     0
281
     1
  0
CLASS
  1
XRECORD
  2
AcDbXrecord
  3
AutoCAD 2000
 90
    32768
280
     0
281
     0
  0
CLASS
  1
LONG_TRANSACTION
  2
AcDbLongTransaction
  3
AutoCAD 2000
 90
    32768
280
     0
281
     0
  0
CLASS
  1
LWPOLYLINE
  2
AcDbPolyline
  3
AutoCAD 2000
 90
    32768
280
     0
281
     1
  0
CLASS
  1
HATCH
  2
AcDbHatch
  3
AutoCAD 2000
 90
    32768
280
     0
281
     1
  0
CLASS
  1
XRECORD
  2
AcDbXrecord
  3
AutoCAD 2000
 90
    32768
280
     0
281
     0
  0
CLASS
  1
LONG_TRANSACTION
  2
AcDbLongTransaction
  3
AutoCAD 2000
 90
    32768
280
     0
281
     0
  0
CLASS
  1
LWPOLYLINE
  2
AcDbPolyline
  3
AutoCAD 2000
 90
    32768
280
     0
281
     1
  0
CLASS
  1
HATCH
  2
AcDbHatch
  3
AutoCAD 2000
 90
    32768
280
     0
281
     1
  0
CLASS
  1
XRECORD
  2
AcDbXrecord
  3
AutoCAD 2000
 90
    32768
280
     0
281
     0
  0
CLASS
  1
LONG_TRANSACTION
  2
AcDbLongTransaction
  3
AutoCAD 2000
 90
    32768
280
     0
281
     0
  0
CLASS
  1
LWPOLYLINE
  2
AcDbPolyline
  3
AutoCAD 2000
 90
    32768
280
     0
281
     1
  0
CLASS
  1
HATCH
  2
AcDbHatch
  3
AutoCAD 2000
 90
    32768
280
     0
281
     1
  0
CLASS
  1
XRECORD
  2
AcDbXrecord
  3
AutoCAD 2000
 90
    32768
280
     0
281
     0
  0
CLASS
  1
LONG_TRANSACTION
  2
AcDbLongTransaction
  3
AutoCAD 2000
 90
    32768
280
     0
281
     0
  0
CLASS
  1
LWPOLYLINE
  2
AcDbPolyline
  3
AutoCAD 2000
 90
    32768
280
     0
281
     1
  0
CLASS
  1
HATCH
  2
AcDbHatch
  3
AutoCAD 2000
 90
    32768
280
     0
281
     1
  0
CLASS
  1
XRECORD
  2
AcDbXrecord
  3
AutoCAD 2000
 90
    32768
280
     0
281
     0
  0
CLASS
  1
LONG_TRANSACTION
  2
AcDbLongTransaction
  3
AutoCAD 2000
 90
    32768
280
     0
281
     0
  0
CLASS
  1
LWPOLYLINE
  2
AcDbPolyline
  3
AutoCAD 2000
 90
    32768
280
     0
281
     1
  0
CLASS
  1
HATCH
  2
AcDbHatch
  3
AutoCAD 2000
 90
    32768
280
     0
281
     1
  0
CLASS
  1
XRECORD
  2
AcDbXrecord
  3
AutoCAD 2000
 90
    32768
280
     0
281
     0
  0
CLASS
  1
LONG_TRANSACTION
  2
AcDbLongTransaction
  3
AutoCAD 2000
 90
    32768
280
     0
281
     0
  0
CLASS
  1
LWPOLYLINE
  2
AcDbPolyline
  3
AutoCAD 2000
 90
    32768
280
     0
281
     1
  0
CLASS
  1
HATCH
  2
AcDbHatch
  3
AutoCAD 2000
 90
    32768
280
     0
281
     1
  0
CLASS
  1
XRECORD
  2
AcDbXrecord
  3
AutoCAD 2000
 90
    32768
280
     0
281
     0
  0
CLASS
  1
LONG_TRANSACTION
  2
AcDbLongTransaction
  3
AutoCAD 2000
 90
    32768
280
     0
281
     0
  0
CLASS
  1
LWPOLYLINE
  2
AcDbPolyline
  3
AutoCAD 2000
 90
    32768
280
     0
281
     1
  0
CLASS
  1
HATCH
  2
AcDbHatch
  3
AutoCAD 2000
 90
    32768
280
     0
281
     1
  0
CLASS
  1
XRECORD
  2
AcDbXrecord
  3
AutoCAD 2000
 90
    32768
280
     0
281
     0
  0
CLASS
  1
LONG_TRANSACTION
  2
AcDbLongTransaction
  3
AutoCAD 2000
 90
    32768
280
     0
281
     0
  0
CLASS
  1
LWPOLYLINE
  2
AcDbPolyline
  3
AutoCAD 2000
 90
    32768
280
     0
281
     1
  0
CLASS
  1
HATCH
  2
AcDbHatch
  3
AutoCAD 2000
 90
    32768
280
     0
281
     1
  0
CLASS
  1
XRECORD
  2
AcDbXrecord
  3
AutoCAD 2000
 90
    32768
280
     0
281
     0
  0
CLASS
  1
LONG_TRANSACTION
  2
AcDbLongTransaction
  3
AutoCAD 2000
 90
    32768
280
     0
281
     0
  0
CLASS
  1
LWPOLYLINE
  2
AcDbPolyline
  3
AutoCAD 2000
 90
    32768
280
     0
281
     1
  0
CLASS
  1
HATCH
  2
AcDbHatch
  3
AutoCAD 2000
 90
    32768
280
     0
281
     1
  0
CLASS
  1
XRECORD
  2
AcDbXrecord
  3
AutoCAD 2000
 90
    32768
280
     0
281
     0
  0
CLASS
  1
LONG_TRANSACTION
  2
AcDbLongTransaction
  3
AutoCAD 2000
 90
    32768
280
     0
281
     0
  0
CLASS
  1
LWPOLYLINE
  2
AcDbPolyline
  3
AutoCAD 2000
 90
    32768
280
     0
281
     1
  0
CLASS
  1
HATCH
  2
AcDbHatch
  3
AutoCAD 2000
 90
    32768
280
     0
281
     1
  0
CLASS
  1
XRECORD
  2
AcDbXrecord
  3
AutoCAD 2000
 90
    32768
280
     0
281
     0
  0
CLASS
  1
LONG_TRANSACTION
  2
AcDbLongTransaction
  3
AutoCAD 2000
 90
    32768
280
     0
281
     0
  0
CLASS
  1
LWPOLYLINE
  2
AcDbPolyline
  3
AutoCAD 2000
 90
    32768
280
     0
281
     1
  0
CLASS
  1
HATCH
  2
AcDbHatch
  3
AutoCAD 2000
 90
    32768
280
     0
281
     1
  0
CLASS
  1
XRECORD
  2
AcDbXrecord
  3
AutoCAD 2000
 90
    32768
280
     0
281
     0
  0
CLASS
  1
LONG_TRANSACTION
  2
AcDbLongTransaction
  3
AutoCAD 2000
 90
    32768
280
     0
281
     0
  0
CLASS
  1
LWPOLYLINE
  2
AcDbPolyline
  3
AutoCAD 2000
 90
    32768
280
     0
281
     1
  0
CLASS
  1
HATCH
  2
AcDbHatch
  3
AutoCAD 2000
 90
    32768
280
     0
281
     1
  0
CLASS
  1
XRECORD
  2
AcDbXrecord
  3
AutoCAD 2000
 90
    32768
280
     0
281
     0
  0
CLASS
  1
LONG_TRANSACTION
  2
AcDbLongTransaction
  3
AutoCAD 2000
 90
    32768
280
     0
281
     0
  0
CLASS
  1
LWPOLYLINE
  2
AcDbPolyline
  3
AutoCAD 2000
 90
    32768
280
     0
281
     1
  0
CLASS
  1
HATCH
  2
AcDbHatch
  3
AutoCAD 2000
 90
    32768
280
     0
281
     1
  0
CLASS
  1
XRECORD
  2
AcDbXrecord
  3
AutoCAD 2000
 90
    32768
280
     0
281
     0
  0
CLASS
  1
LONG_TRANSACTION
  2
AcDbLongTransaction
  3
AutoCAD 2000
 90
    32768
280
     0
281
     0
  0
CLASS
  1
LWPOLYLINE
  2
AcDbPolyline
  3
AutoCAD 2000
 90
    32768
280
     0
281
     1
  0
CLASS
  1
HATCH
  2
AcDbHatch
  3
AutoCAD 2000
 90
    32768
280
     0
281
     1
  0
CLASS
  1
XRECORD
  2
AcDbXrecord
  3
AutoCAD 2000
 90
    32768
280
     0
281
     0
  0
CLASS
  1
LONG_TRANSACTION
  2
AcDbLongTransaction
  3
AutoCAD 2000
 90
    32768
280
     0
281
     0
  0
CLASS
  1
LWPOLYLINE
  2
AcDbPolyline
  3
AutoCAD 2000
 90
    32768
280
     0
281
     1
  0
CLASS
  1
HATCH
  2
AcDbHatch
  3
AutoCAD 2000
 90
    32768
280
     0
281
     1
  0
CLASS
  1
XRECORD
  2
AcDbXrecord
  3
AutoCAD 2000
 90
    32768
280
     0
281
     0
  0
CLASS
  1
LONG_TRANSACTION
  2
AcDbLongTransaction
  3
AutoCAD 2000
 90
    32768
280
     0
281
     0
  0
CLASS
  1
LWPOLYLINE
  2
AcDbPolyline
  3
AutoCAD 2000
 90
    32768
280
     0
281
     1
  0
CLASS
  1
HATCH
  2
AcDbHatch
  3
AutoCAD 2000
 90
    32768
280
     0
281
     1
  0
CLASS
  1
XRECORD
  2
AcDbXrecord
  3
AutoCAD 2000
 90
    32768
280
     0
281
     0
  0
CLASS
  1
LONG_TRANSACTION
  2
AcDbLongTransaction
  3
AutoCAD 2000
 90
    32768
280
     0
281
     0
  0
CLASS
  1
LWPOLYLINE
  2
AcDbPolyline
  3
AutoCAD 2000
 90
    32768
280
     0
281
     1
  0
CLASS
  1
HATCH
  2
AcDbHatch
  3
AutoCAD 2000
 90
    32768
280
     0
281
     1
  0
CLASS
  1
XRECORD
  2
AcDbXrecord
  3
AutoCAD 2000
 90
    32768
280
     0
281
     0
  0
CLASS
  1
DICTIONARYVAR
  2
AcDbDictionaryVar
  3
AutoCAD 2000
 90
        0
280
     0
281
     0
  0
CLASS
  1
LONG_TRANSACTION
  2
AcDbLongTransaction
  3
AutoCAD 2000
 90
    32768
280
     0
281
     0
  0
CLASS
  1
LWPOLYLINE
  2
AcDbPolyline
  3
AutoCAD 2000
 90
    32768
280
     0
281
     1
  0
CLASS
  1
HATCH
  2
AcDbHatch
  3
AutoCAD 2000
 90
    32768
280
     0
281
     1
  0
CLASS
  1
XRECORD
  2
AcDbXrecord
  3
AutoCAD 2000
 90
    32768
280
     0
281
     0
  0
CLASS
  1
LONG_TRANSACTION
  2
AcDbLongTransaction
  3
AutoCAD 2000
 90
    32768
280
     0
281
     0
  0
CLASS
  1
LWPOLYLINE
  2
AcDbPolyline
  3
AutoCAD 2000
 90
    32768
280
     0
281
     1
  0
CLASS
  1
HATCH
  2
AcDbHatch
  3
AutoCAD 2000
 90
    32768
280
     0
281
     1
  0
CLASS
  1
XRECORD
  2
AcDbXrecord
  3
AutoCAD 2000
 90
    32768
280
     0
281
     0
  0
CLASS
  1
LONG_TRANSACTION
  2
AcDbLongTransaction
  3
AutoCAD 2000
 90
    32768
280
     0
281
     0
  0
CLASS
  1
LWPOLYLINE
  2
AcDbPolyline
  3
AutoCAD 2000
 90
    32768
280
     0
281
     1
  0
CLASS
  1
HATCH
  2
AcDbHatch
  3
AutoCAD 2000
 90
    32768
280
     0
281
     1
  0
CLASS
  1
XRECORD
  2
AcDbXrecord
  3
AutoCAD 2000
 90
    32768
280
     0
281
     0
  0
CLASS
  1
LONG_TRANSACTION
  2
AcDbLongTransaction
  3
AutoCAD 2000
 90
    32768
280
     0
281
     0
  0
CLASS
  1
LWPOLYLINE
  2
AcDbPolyline
  3
AutoCAD 2000
 90
    32768
280
     0
281
     1
  0
CLASS
  1
HATCH
  2
AcDbHatch
  3
AutoCAD 2000
 90
    32768
280
     0
281
     1
  0
CLASS
  1
XRECORD
  2
AcDbXrecord
  3
AutoCAD 2000
 90
    32768
280
     0
281
     0
  0
CLASS
  1
LONG_TRANSACTION
  2
AcDbLongTransaction
  3
AutoCAD 2000
 90
    32768
280
     0
281
     0
  0
CLASS
  1
LWPOLYLINE
  2
AcDbPolyline
  3
AutoCAD 2000
 90
    32768
280
     0
281
     1
  0
CLASS
  1
HATCH
  2
AcDbHatch
  3
AutoCAD 2000
 90
    32768
280
     0
281
     1
  0
CLASS
  1
XRECORD
  2
AcDbXrecord
  3
AutoCAD 2000
 90
    32768
280
     0
281
     0
  0
CLASS
  1
LONG_TRANSACTION
  2
AcDbLongTransaction
  3
AutoCAD 2000
 90
    32768
280
     0
281
     0
  0
CLASS
  1
LWPOLYLINE
  2
AcDbPolyline
  3
AutoCAD 2000
 90
    32768
280
     0
281
     1
  0
CLASS
  1
HATCH
  2
AcDbHatch
  3
AutoCAD 2000
 90
    32768
280
     0
281
     1
  0
CLASS
  1
XRECORD
  2
AcDbXrecord
  3
AutoCAD 2000
 90
    32768
280
     0
281
     0
  0
CLASS
  1
LONG_TRANSACTION
  2
AcDbLongTransaction
  3
AutoCAD 2000
 90
    32768
280
     0
281
     0
  0
CLASS
  1
LWPOLYLINE
  2
AcDbPolyline
  3
AutoCAD 2000
 90
    32768
280
     0
281
     1
  0
CLASS
  1
HATCH
  2
AcDbHatch
  3
AutoCAD 2000
 90
    32768
280
     0
281
     1
  0
CLASS
  1
XRECORD
  2
AcDbXrecord
  3
AutoCAD 2000
 90
    32768
280
     0
281
     0
  0
CLASS
  1
LONG_TRANSACTION
  2
AcDbLongTransaction
  3
AutoCAD 2000
 90
    32768
280
     0
281
     0
  0
CLASS
  1
LWPOLYLINE
  2
AcDbPolyline
  3
AutoCAD 2000
 90
    32768
280
     0
281
     1
  0
CLASS
  1
HATCH
  2
AcDbHatch
  3
AutoCAD 2000
 90
    32768
280
     0
281
     1
  0
CLASS
  1
XRECORD
  2
AcDbXrecord
  3
AutoCAD 2000
 90
    32768
280
     0
281
     0
  0
CLASS
  1
LONG_TRANSACTION
  2
AcDbLongTransaction
  3
AutoCAD 2000
 90
    32768
280
     0
281
     0
  0
CLASS
  1
LWPOLYLINE
  2
AcDbPolyline
  3
AutoCAD 2000
 90
    32768
280
     0
281
     1
  0
CLASS
  1
HATCH
  2
AcDbHatch
  3
AutoCAD 2000
 90
    32768
280
     0
281
     1
  0
CLASS
  1
XRECORD
  2
AcDbXrecord
  3
AutoCAD 2000
 90
    32768
280
     0
281
     0
  0
CLASS
  1
LONG_TRANSACTION
  2
AcDbLongTransaction
  3
AutoCAD 2000
 90
    32768
280
     0
281
     0
  0
CLASS
  1
LWPOLYLINE
  2
AcDbPolyline
  3
AutoCAD 2000
 90
    32768
280
     0
281
     1
  0
CLASS
  1
HATCH
  2
AcDbHatch
  3
AutoCAD 2000
 90
    32768
280
     0
281
     1
  0
CLASS
  1
XRECORD
  2
AcDbXrecord
  3
AutoCAD 2000
 90
    32768
280
     0
281
     0
  0
CLASS
  1
LONG_TRANSACTION
  2
AcDbLongTransaction
  3
AutoCAD 2000
 90
    32768
280
     0
281
     0
  0
CLASS
  1
LWPOLYLINE
  2
AcDbPolyline
  3
AutoCAD 2000
 90
    32768
280
     0
281
     1
  0
CLASS
  1
HATCH
  2
AcDbHatch
  3
AutoCAD 2000
 90
    32768
280
     0
281
     1
  0
CLASS
  1
XRECORD
  2
AcDbXrecord
  3
AutoCAD 2000
 90
    32768
280
     0
281
     0
  0
CLASS
  1
LONG_TRANSACTION
  2
AcDbLongTransaction
  3
AutoCAD 2000
 90
    32768
280
     0
281
     0
  0
CLASS
  1
LWPOLYLINE
  2
AcDbPolyline
  3
AutoCAD 2000
 90
    32768
280
     0
281
     1
  0
CLASS
  1
HATCH
  2
AcDbHatch
  3
AutoCAD 2000
 90
    32768
280
     0
281
     1
  0
CLASS
  1
XRECORD
  2
AcDbXrecord
  3
AutoCAD 2000
 90
    32768
280
     0
281
     0
  0
CLASS
  1
LONG_TRANSACTION
  2
AcDbLongTransaction
  3
AutoCAD 2000
 90
    32768
280
     0
281
     0
  0
CLASS
  1
LWPOLYLINE
  2
AcDbPolyline
  3
AutoCAD 2000
 90
    32768
280
     0
281
     1
  0
CLASS
  1
HATCH
  2
AcDbHatch
  3
AutoCAD 2000
 90
    32768
280
     0
281
     1
  0
CLASS
  1
XRECORD
  2
AcDbXrecord
  3
AutoCAD 2000
 90
    32768
280
     0
281
     0
  0
CLASS
  1
LONG_TRANSACTION
  2
AcDbLongTransaction
  3
AutoCAD 2000
 90
    32768
280
     0
281
     0
  0
CLASS
  1
LWPOLYLINE
  2
AcDbPolyline
  3
AutoCAD 2000
 90
    32768
280
     0
281
     1
  0
CLASS
  1
HATCH
  2
AcDbHatch
  3
AutoCAD 2000
 90
    32768
280
     0
281
     1
  0
CLASS
  1
XRECORD
  2
AcDbXrecord
  3
AutoCAD 2000
 90
    32768
280
     0
281
     0
  0
CLASS
  1
LONG_TRANSACTION
  2
AcDbLongTransaction
  3
AutoCAD 2000
 90
    32768
280
     0
281
     0
  0
CLASS
  1
LWPOLYLINE
  2
AcDbPolyline
  3
AutoCAD 2000
 90
    32768
280
     0
281
     1
  0
CLASS
  1
HATCH
  2
AcDbHatch
  3
AutoCAD 2000
 90
    32768
280
     0
281
     1
  0
CLASS
  1
XRECORD
  2
AcDbXrecord
  3
AutoCAD 2000
 90
    32768
280
     0
281
     0
  0
ENDSEC
  0
SECTION
  2
TABLES
  0
TABLE
  2
VPORT
  5
8
330
0
100
AcDbSymbolTable
 70
     2
  0
VPORT
  5
D4EC
330
8
100
AcDbSymbolTableRecord
100
AcDbViewportTableRecord
  2
*Active
 70
     0
 10
0.0
 20
0.0
 11
1.0
 21
1.0
 12
462.6363332608437
 22
24.19991287668074
 13
0.0
 23
0.0
 14
1.0
 24
1.0
 15
10.0
 25
10.0
 16
0.0
 26
0.0
 36
1.0
 17
0.0
 27
0.0
 37
0.0
 40
718.5158035747146
 41
1.614711033274956
 42
50.0
 43
0.0
 44
0.0
 50
0.0
 51
0.0
 71
     0
 72
   100
 73
     1
 74
     1
 75
     0
 76
     0
 77
     0
 78
     0
281
     0
 65
     1
110
0.0
120
0.0
130
0.0
111
1.0
121
0.0
131
0.0
112
0.0
122
1.0
132
0.0
 79
     0
146
0.0
  0
ENDTAB
  0
TABLE
  2
LTYPE
  5
5
330
0
100
AcDbSymbolTable
 70
     5
  0
LTYPE
  5
13
330
5
100
AcDbSymbolTableRecord
100
AcDbLinetypeTableRecord
  2
BYBLOCK
 70
     0
  3

 72
    65
 73
     0
 40
0.0
  0
LTYPE
  5
14
330
5
100
AcDbSymbolTableRecord
100
AcDbLinetypeTableRecord
  2
BYLAYER
 70
     0
  3

 72
    65
 73
     0
 40
0.0
  0
LTYPE
  5
15
330
5
100
AcDbSymbolTableRecord
100
AcDbLinetypeTableRecord
  2
CONTINUOUS
 70
     0
  3
Solid line
 72
    65
 73
     0
 40
0.0
  0
LTYPE
  5
22
330
5
100
AcDbSymbolTableRecord
100
AcDbLinetypeTableRecord
  2
CONTINOUS
 70
     0
  3
Solid line
 72
    65
 73
     0
 40
0.0
  0
LTYPE
  5
23
330
5
100
AcDbSymbolTableRecord
100
AcDbLinetypeTableRecord
  2
DASHED
 70
     0
  3
__ __ __ __ __ __ __ __ __ __ __ __ __ __ __
 72
    65
 73
     2
 40
0.75
 49
0.5
 74
     0
 49
-0.25
 74
     0
  0
LTYPE
  5
24
330
5
100
AcDbSymbolTableRecord
100
AcDbLinetypeTableRecord
  2
DASHDOT
 70
     0
  3
__ . __ . __ . __ . __ . __ . __ . __ . __ . __
 72
    65
 73
     4
 40
1.0
 49
0.5
 74
     0
 49
-0.25
 74
     0
 49
0.0
 74
     0
 49
-0.25
 74
     0
  0
LTYPE
  5
4C47
330
5
100
AcDbSymbolTableRecord
100
AcDbLinetypeTableRecord
  2
DIVIDE
 70
     0
  3
Divide ____ . . ____ . . ____ . . ____ . . ____
 72
    65
 73
     6
 40
1.25
 49
0.5
 74
     0
 49
-0.25
 74
     0
 49
0.0
 74
     0
 49
-0.25
 74
     0
 49
0.0
 74
     0
 49
-0.25
 74
     0
  0
ENDTAB
  0
TABLE
  2
LAYER
  5
2
330
0
100
AcDbSymbolTable
 70
    11
  0
LAYER
  5
10
330
2
100
AcDbSymbolTableRecord
100
AcDbLayerTableRecord
  2
0
 70
     0
 62
     7
  6
CONTINOUS
370
    -3
390
F
  0
LAYER
  5
2F
330
2
100
AcDbSymbolTableRecord
100
AcDbLayerTableRecord
  2
10
 70
     0
 62
     4
  6
CONTINOUS
370
    -3
390
F
  0
LAYER
  5
31
330
2
100
AcDbSymbolTableRecord
100
AcDbLayerTableRecord
  2
12
 70
     0
 62
     3
  6
CONTINOUS
370
    -3
390
F
  0
LAYER
  5
35
330
2
100
AcDbSymbolTableRecord
100
AcDbLayerTableRecord
  2
16
 70
     0
 62
     6
  6
DASHDOT
370
    -3
390
F
  0
LAYER
  5
38
330
2
100
AcDbSymbolTableRecord
100
AcDbLayerTableRecord
  2
19
 70
     0
 62
     7
  6
CONTINOUS
370
    -3
390
F
  0
LAYER
  5
3D
330
2
100
AcDbSymbolTableRecord
100
AcDbLayerTableRecord
  2
24
 70
     0
 62
     2
  6
CONTINOUS
370
    -3
390
F
  0
LAYER
  5
3A2
330
2
100
AcDbSymbolTableRecord
100
AcDbLayerTableRecord
  2
30
 70
     0
 62
     9
  6
CONTINUOUS
370
    -3
390
F
  0
LAYER
  5
3A4
330
2
100
AcDbSymbolTableRecord
100
AcDbLayerTableRecord
  2
DEFPOINTS
 70
     0
 62
     7
  6
CONTINUOUS
290
     0
370
    -3
390
F
  0
LAYER
  5
3BBA
330
2
100
AcDbSymbolTableRecord
100
AcDbLayerTableRecord
  2
18
 70
     0
 62
     5
  6
DIVIDE
370
    -3
390
F
  0
LAYER
  5
67A8
330
2
100
AcDbSymbolTableRecord
100
AcDbLayerTableRecord
  2
11
 70
     0
 62
     1
  6
CONTINOUS
370
    -3
390
F
  0
LAYER
  5
7837
330
2
100
AcDbSymbolTableRecord
100
AcDbLayerTableRecord
  2
17
 70
     0
 62
     2
  6
DASHDOT
370
    -3
390
F
  0
ENDTAB
  0
TABLE
  2
STYLE
  5
3
330
0
100
AcDbSymbolTable
 70
     2
  0
STYLE
  5
11
330
3
100
AcDbSymbolTableRecord
100
AcDbTextStyleTableRecord
  2
STANDARD
 70
     0
 40
0.0
 41
1.0
 50
0.0
 71
     0
 42
2.0
  3
txt.shx
  4
bigfont.shx
  0
STYLE
  5
42
330
3
100
AcDbSymbolTableRecord
100
AcDbTextStyleTableRecord
  2
STANDARD1
 70
     0
 40
0.0
 41
1.0
 50
0.0
 71
     0
 42
5.0
  3
MONOTXT
  4
BIGFONT
  0
ENDTAB
  0
TABLE
  2
VIEW
  5
6
330
0
100
AcDbSymbolTable
 70
     3
  0
VIEW
  5
230C
330
6
100
AcDbSymbolTableRecord
100
AcDbViewTableRecord
  2
OLE1
 70
     0
 40
148.912488
 10
429.497628
 20
2.560627
 41
103.145806
 11
0.0
 21
0.0
 31
1.0
 12
0.0
 22
0.0
 32
0.0
 42
50.0
 43
0.0
 44
0.0
 50
0.0
 71
     0
281
     0
 72
     0
  0
VIEW
  5
230E
330
6
100
AcDbSymbolTableRecord
100
AcDbViewTableRecord
  2
OLE2
 70
     0
 40
170.778692
 10
322.66497
 20
-5.978304
 41
102.467215
 11
0.0
 21
0.0
 31
1.0
 12
0.0
 22
0.0
 32
0.0
 42
50.0
 43
0.0
 44
0.0
 50
0.0
 71
     0
281
     0
 72
     0
  0
VIEW
  5
23AA
330
6
100
AcDbSymbolTableRecord
100
AcDbViewTableRecord
  2
OLE3
 70
     0
 40
591.7897389999998
 10
84.79698199999999
 20
-46.09335999999998
 41
388.792096
 11
0.0
 21
0.0
 31
1.0
 12
0.0
 22
0.0
 32
0.0
 42
50.0
 43
0.0
 44
0.0
 50
0.0
 71
     0
281
     0
 72
     0
  0
ENDTAB
  0
TABLE
  2
UCS
  5
7
330
0
100
AcDbSymbolTable
 70
     0
  0
ENDTAB
  0
TABLE
  2
APPID
  5
9
330
0
100
AcDbSymbolTable
 70
     2
  0
APPID
  5
12
330
9
100
AcDbSymbolTableRecord
100
AcDbRegAppTableRecord
  2
ACAD
 70
     0
  0
APPID
  5
ECD
330
9
100
AcDbSymbolTableRecord
100
AcDbRegAppTableRecord
  2
CONTENTBLOCKICON
 70
     0
  0
ENDTAB
  0
TABLE
  2
DIMSTYLE
  5
A
330
0
100
AcDbSymbolTable
 70
     2
100
AcDbDimStyleTable
 71
     2
340
BCE4
340
175
  0
DIMSTYLE
105
175
102
{ACAD_REACTORS
330
CF65
102
}
330
A
100
AcDbSymbolTableRecord
100
AcDbDimStyleTableRecord
  2
STANDARD
 70
     0
 41
2.0
 42
1.0
 43
0.5
 44
0.5
 73
     0
 77
     3
 78
    12
140
4.0
147
1.0
271
     1
272
     1
340
11
341
3B2
342
3B2
  0
DIMSTYLE
105
BCE4
102
{ACAD_REACTORS
330
B9F6
330
B9F5
330
B676
330
B674
330
B673
330
B672
330
B671
330
B273
330
B272
330
B271
330
B270
330
B26F
330
97EB
330
978B
330
9785
330
965B
330
965A
330
9659
330
95B0
330
B797
330
959B
330
959C
330
9599
330
959A
330
9658
330
9657
330
9656
330
95A0
330
959E
330
959D
330
D141
330
D142
330
CB96
330
CB97
330
CB98
330
CB99
330
CB9A
330
CB9B
330
CBA0
330
CBA5
330
CBA6
330
CBC0
330
CBC1
330
CBC3
330
D200
330
D201
330
D203
330
D1D6
330
D1D7
330
D1D8
330
D1D9
330
D1DA
330
D1DB
330
D1E0
330
D1E5
330
D1E6
102
}
330
A
100
AcDbSymbolTableRecord
100
AcDbDimStyleTableRecord
  2
STANDARD1
 70
     0
 41
2.0
 42
3.0
 43
0.5
 44
0.5
 73
     0
 77
     3
 78
    12
140
6.0
147
3.0
271
     1
272
     1
289
     2
340
11
341
3B2
342
3B2
  0
ENDTAB
  0
TABLE
  2
BLOCK_RECORD
  5
1
330
0
100
AcDbSymbolTable
 70
    60
  0
BLOCK_RECORD
  5
1E
102
{ACAD_XDICTIONARY
360
178
102
}
330
1
100
AcDbSymbolTableRecord
100
AcDbBlockTableRecord
  2
*MODEL_SPACE
340
904E
  0
BLOCK_RECORD
  5
1A
102
{ACAD_XDICTIONARY
360
17A
102
}
330
1
100
AcDbSymbolTableRecord
100
AcDbBlockTableRecord
  2
*PAPER_SPACE
340
904F
  0
BLOCK_RECORD
  5
3B2
330
1
100
AcDbSymbolTableRecord
100
AcDbBlockTableRecord
  2
_OPEN
340
0
102
{BLKREFS
331
CB2A
331
CB2B
331
CB1D
331
CB1E
331
CB11
331
CB12
331
CB05
331
CB06
331
CB5A
331
CB5B
331
CB4E
331
CB4F
331
CB81
331
CB82
331
CB8D
331
CB8E
331
CB75
331
CB76
331
CB66
331
CB67
331
CB36
331
CB37
331
CB42
331
CB43
331
CBDF
331
CBE0
331
CC0E
331
CC0F
331
CC17
331
CC18
331
CC20
331
CC21
331
CC29
331
CC2A
331
CC32
331
CC33
331
CC3B
331
CC3C
331
CC44
331
CC45
331
CC4D
331
CC4E
331
CC55
331
CC5E
331
CC5F
331
CC67
331
CC68
331
CC70
331
CC71
331
CC79
331
CC7A
331
CC8B
331
CC8C
331
CC94
331
CC95
331
CC9D
331
CC9E
331
CCA6
331
CCA7
331
CCAF
331
CCB0
331
CCC0
331
CCC1
331
CCDB
331
CCDC
331
CCE4
331
CCE5
331
CCED
331
CCEE
331
CCFE
331
CCFF
331
CD08
331
CD09
331
CD2B
331
CD2C
331
CD4A
331
CD4B
331
D0AF
331
D0B0
331
D0DC
331
D0DD
331
D0F3
331
D0F4
331
D0FB
331
D0FC
331
D177
331
D178
331
D180
331
D181
331
D188
331
D209
331
D20A
331
D215
331
D216
331
D221
331
D222
331
D22E
331
D22F
331
D23A
331
D23B
331
D246
331
D247
331
D252
331
D253
331
D25E
331
D25F
331
D26A
331
D26B
331
D277
331
D278
331
D283
331
D284
331
D292
331
D293
331
D29C
331
D29D
331
D2A5
331
D2A6
331
D2AE
331
D2AF
331
D2B8
331
D2B9
331
D2C1
331
D2C2
331
D2CA
331
D2CB
331
D2D3
331
D2D4
331
D2DC
331
D2DD
331
D2E5
331
D2E6
331
D2EF
331
D2F0
331
D2F8
331
D2F9
331
D304
331
D305
331
D30C
331
D30D
331
D316
331
D317
331
D320
331
D321
331
D32A
331
D32B
331
D335
331
D336
331
D340
331
D341
331
D34B
331
D34C
331
D357
331
D358
331
D362
331
D363
331
D36D
331
D36E
331
D375
331
D376
331
D37E
331
D37F
331
D387
331
D388
331
D390
331
D391
331
D399
331
D39A
331
D3A3
331
D3A4
331
D3AC
331
D3AD
331
D3B5
331
D3B6
331
D3BE
331
D3BF
331
D3C7
331
D3C8
331
D3D0
331
D3D1
331
D3D9
331
D3DA
331
D3E5
331
D3E6
331
D41C
331
D41D
331
D425
331
D426
331
D42E
331
D42F
331
D437
331
D438
331
D443
331
D444
331
D4AB
331
D4AC
331
D4B4
331
D4B5
331
D4BD
331
D4BE
102
}
  0
BLOCK_RECORD
  5
9829
330
1
100
AcDbSymbolTableRecord
100
AcDbBlockTableRecord
  2
*D1
340
0
  0
BLOCK_RECORD
  5
9836
330
1
100
AcDbSymbolTableRecord
100
AcDbBlockTableRecord
  2
*D2
340
0
  0
BLOCK_RECORD
  5
9844
330
1
100
AcDbSymbolTableRecord
100
AcDbBlockTableRecord
  2
*D3
340
0
  0
BLOCK_RECORD
  5
9851
330
1
100
AcDbSymbolTableRecord
100
AcDbBlockTableRecord
  2
*D4
340
0
  0
BLOCK_RECORD
  5
985E
330
1
100
AcDbSymbolTableRecord
100
AcDbBlockTableRecord
  2
*D5
340
0
  0
BLOCK_RECORD
  5
986B
330
1
100
AcDbSymbolTableRecord
100
AcDbBlockTableRecord
  2
*D6
340
0
  0
BLOCK_RECORD
  5
991A
330
1
100
AcDbSymbolTableRecord
100
AcDbBlockTableRecord
  2
*D7
340
0
  0
BLOCK_RECORD
  5
9926
330
1
100
AcDbSymbolTableRecord
100
AcDbBlockTableRecord
  2
*D8
340
0
  0
BLOCK_RECORD
  5
999B
330
1
100
AcDbSymbolTableRecord
100
AcDbBlockTableRecord
  2
*D9
340
0
  0
BLOCK_RECORD
  5
99F0
330
1
100
AcDbSymbolTableRecord
100
AcDbBlockTableRecord
  2
*D10
340
0
  0
BLOCK_RECORD
  5
99FC
330
1
100
AcDbSymbolTableRecord
100
AcDbBlockTableRecord
  2
*D11
340
0
  0
BLOCK_RECORD
  5
9A08
330
1
100
AcDbSymbolTableRecord
100
AcDbBlockTableRecord
  2
*D12
340
0
  0
BLOCK_RECORD
  5
9A14
330
1
100
AcDbSymbolTableRecord
100
AcDbBlockTableRecord
  2
*D13
340
0
  0
BLOCK_RECORD
  5
9A20
330
1
100
AcDbSymbolTableRecord
100
AcDbBlockTableRecord
  2
*D14
340
0
  0
BLOCK_RECORD
  5
9A2C
330
1
100
AcDbSymbolTableRecord
100
AcDbBlockTableRecord
  2
*D15
340
0
  0
BLOCK_RECORD
  5
9A45
330
1
100
AcDbSymbolTableRecord
100
AcDbBlockTableRecord
  2
*D16
340
0
  0
BLOCK_RECORD
  5
9A6B
330
1
100
AcDbSymbolTableRecord
100
AcDbBlockTableRecord
  2
*D17
340
0
  0
BLOCK_RECORD
  5
B274
330
1
100
AcDbSymbolTableRecord
100
AcDbBlockTableRecord
  2
*D18
340
0
  0
BLOCK_RECORD
  5
B280
330
1
100
AcDbSymbolTableRecord
100
AcDbBlockTableRecord
  2
*D19
340
0
  0
BLOCK_RECORD
  5
B28C
330
1
100
AcDbSymbolTableRecord
100
AcDbBlockTableRecord
  2
*D20
340
0
  0
BLOCK_RECORD
  5
B298
330
1
100
AcDbSymbolTableRecord
100
AcDbBlockTableRecord
  2
*D21
340
0
  0
BLOCK_RECORD
  5
B2A4
330
1
100
AcDbSymbolTableRecord
100
AcDbBlockTableRecord
  2
*D22
340
0
  0
BLOCK_RECORD
  5
B677
330
1
100
AcDbSymbolTableRecord
100
AcDbBlockTableRecord
  2
*D23
340
0
  0
BLOCK_RECORD
  5
B683
330
1
100
AcDbSymbolTableRecord
100
AcDbBlockTableRecord
  2
*D24
340
0
  0
BLOCK_RECORD
  5
B68F
330
1
100
AcDbSymbolTableRecord
100
AcDbBlockTableRecord
  2
*D25
340
0
  0
BLOCK_RECORD
  5
B6A7
330
1
100
AcDbSymbolTableRecord
100
AcDbBlockTableRecord
  2
*D26
340
0
  0
BLOCK_RECORD
  5
B6B3
330
1
100
AcDbSymbolTableRecord
100
AcDbBlockTableRecord
  2
*D27
340
0
  0
BLOCK_RECORD
  5
B798
330
1
100
AcDbSymbolTableRecord
100
AcDbBlockTableRecord
  2
*D28
340
0
  0
BLOCK_RECORD
  5
B9F7
330
1
100
AcDbSymbolTableRecord
100
AcDbBlockTableRecord
  2
*D29
340
0
  0
BLOCK_RECORD
  5
BA03
330
1
100
AcDbSymbolTableRecord
100
AcDbBlockTableRecord
  2
*D30
340
0
  0
BLOCK_RECORD
  5
CB01
330
1
100
AcDbSymbolTableRecord
100
AcDbBlockTableRecord
  2
*D31
340
0
  0
BLOCK_RECORD
  5
CB0D
330
1
100
AcDbSymbolTableRecord
100
AcDbBlockTableRecord
  2
*D32
340
0
  0
BLOCK_RECORD
  5
CB19
330
1
100
AcDbSymbolTableRecord
100
AcDbBlockTableRecord
  2
*D33
340
0
  0
BLOCK_RECORD
  5
CB25
330
1
100
AcDbSymbolTableRecord
100
AcDbBlockTableRecord
  2
*D34
340
0
  0
BLOCK_RECORD
  5
CB32
330
1
100
AcDbSymbolTableRecord
100
AcDbBlockTableRecord
  2
*D35
340
0
  0
BLOCK_RECORD
  5
CB3E
330
1
100
AcDbSymbolTableRecord
100
AcDbBlockTableRecord
  2
*D36
340
0
  0
BLOCK_RECORD
  5
CB4A
330
1
100
AcDbSymbolTableRecord
100
AcDbBlockTableRecord
  2
*D37
340
0
  0
BLOCK_RECORD
  5
CB56
330
1
100
AcDbSymbolTableRecord
100
AcDbBlockTableRecord
  2
*D38
340
0
  0
BLOCK_RECORD
  5
CB62
330
1
100
AcDbSymbolTableRecord
100
AcDbBlockTableRecord
  2
*D39
340
0
  0
BLOCK_RECORD
  5
CB6E
330
1
100
AcDbSymbolTableRecord
100
AcDbBlockTableRecord
  2
*D40
340
0
  0
BLOCK_RECORD
  5
CB7C
330
1
100
AcDbSymbolTableRecord
100
AcDbBlockTableRecord
  2
*D41
340
0
  0
BLOCK_RECORD
  5
CB89
330
1
100
AcDbSymbolTableRecord
100
AcDbBlockTableRecord
  2
*D42
340
0
  0
BLOCK_RECORD
  5
CB95
330
1
100
AcDbSymbolTableRecord
100
AcDbBlockTableRecord
  2
A$C26DE51A3
340
0
102
{BLKREFS
331
CBC7
102
}
  0
BLOCK_RECORD
  5
D04C
330
1
100
AcDbSymbolTableRecord
100
AcDbBlockTableRecord
  2
*D44
340
0
  0
BLOCK_RECORD
  5
D145
330
1
100
AcDbSymbolTableRecord
100
AcDbBlockTableRecord
  2
*D45
340
0
  0
BLOCK_RECORD
  5
D151
330
1
100
AcDbSymbolTableRecord
100
AcDbBlockTableRecord
  2
*D46
340
0
  0
BLOCK_RECORD
  5
D15D
330
1
100
AcDbSymbolTableRecord
100
AcDbBlockTableRecord
  2
*D47
340
0
  0
BLOCK_RECORD
  5
D205
330
1
100
AcDbSymbolTableRecord
100
AcDbBlockTableRecord
  2
*D48
340
0
  0
BLOCK_RECORD
  5
D211
330
1
100
AcDbSymbolTableRecord
100
AcDbBlockTableRecord
  2
*D49
340
0
  0
BLOCK_RECORD
  5
D21D
330
1
100
AcDbSymbolTableRecord
100
AcDbBlockTableRecord
  2
*D50
340
0
  0
BLOCK_RECORD
  5
D229
330
1
100
AcDbSymbolTableRecord
100
AcDbBlockTableRecord
  2
*D51
340
0
  0
BLOCK_RECORD
  5
D236
330
1
100
AcDbSymbolTableRecord
100
AcDbBlockTableRecord
  2
*D52
340
0
  0
BLOCK_RECORD
  5
D242
330
1
100
AcDbSymbolTableRecord
100
AcDbBlockTableRecord
  2
*D53
340
0
  0
BLOCK_RECORD
  5
D24E
330
1
100
AcDbSymbolTableRecord
100
AcDbBlockTableRecord
  2
*D54
340
0
  0
BLOCK_RECORD
  5
D25A
330
1
100
AcDbSymbolTableRecord
100
AcDbBlockTableRecord
  2
*D55
340
0
  0
BLOCK_RECORD
  5
D266
330
1
100
AcDbSymbolTableRecord
100
AcDbBlockTableRecord
  2
*D56
340
0
  0
BLOCK_RECORD
  5
D272
330
1
100
AcDbSymbolTableRecord
100
AcDbBlockTableRecord
  2
*D57
340
0
  0
BLOCK_RECORD
  5
D27F
330
1
100
AcDbSymbolTableRecord
100
AcDbBlockTableRecord
  2
*D58
340
0
  0
BLOCK_RECORD
  5
D28B
330
1
100
AcDbSymbolTableRecord
100
AcDbBlockTableRecord
  2
*D59
340
0
  0
ENDTAB
  0
ENDSEC
  0
SECTION
  2
BLOCKS
  0
BLOCK
  5
1F
330
1E
100
AcDbEntity
  8
0
100
AcDbBlockBegin
  2
*MODEL_SPACE
 70
     0
 10
0.0
 20
0.0
 30
0.0
  3
*MODEL_SPACE
  1

  0
ENDBLK
  5
20
330
1E
100
AcDbEntity
  8
0
100
AcDbBlockEnd
  0
BLOCK
  5
1B
330
1A
100
AcDbEntity
 67
     1
  8
0
100
AcDbBlockBegin
  2
*PAPER_SPACE
 70
     0
 10
0.0
 20
0.0
 30
0.0
  3
*PAPER_SPACE
  1

  0
ENDBLK
  5
1C
330
1A
100
AcDbEntity
 67
     1
  8
0
100
AcDbBlockEnd
  0
BLOCK
  5
3B6
330
3B2
100
AcDbEntity
  8
0
100
AcDbBlockBegin
  2
_OPEN
 70
     0
 10
0.0
 20
0.0
 30
0.0
  3
_OPEN
  1

  0
LINE
  5
3B3
330
3B2
100
AcDbEntity
  8
30
  6
Continuous
 62
     0
100
AcDbLine
 10
-1.0
 20
0.166667
 30
0.0
 11
0.0
 21
0.0
 31
0.0
  0
LINE
  5
3B4
330
3B2
100
AcDbEntity
  8
30
  6
Continuous
 62
     0
100
AcDbLine
 10
-1.0
 20
-0.166667
 30
0.0
 11
0.0
 21
0.0
 31
0.0
  0
LINE
  5
3B5
330
3B2
100
AcDbEntity
  8
30
  6
Continuous
 62
     0
100
AcDbLine
 10
0.0
 20
0.0
 30
0.0
 11
-1.0
 21
0.0
 31
0.0
  0
ENDBLK
  5
3B7
330
3B2
100
AcDbEntity
  8
0
100
AcDbBlockEnd
  0
BLOCK
  5
9834
330
9829
100
AcDbEntity
  8
0
100
AcDbBlockBegin
  2
*D1
 70
     1
 10
0.0
 20
0.0
 30
0.0
  3
*D1
  1

  0
LINE
  5
D0D9
330
9829
100
AcDbEntity
  8
30
  6
Continuous
 62
     0
370
    -2
100
AcDbLine
 10
147.9935351126155
 20
-197.0474753083983
 30
0.0
 11
198.9287293623583
 21
-197.0474753083983
 31
0.0
  0
LINE
  5
D0DA
330
9829
100
AcDbEntity
  8
30
  6
Continuous
 62
     0
370
    -2
100
AcDbLine
 10
152.5
 20
-164.9999999999999
 30
0.0
 11
198.9287293623583
 21
-165.0
 31
0.0
  0
LINE
  5
D0DB
330
9829
100
AcDbEntity
  8
30
  6
Continuous
 62
     0
370
    -2
100
AcDbLine
 10
198.428729362358
 20
-195.0474753083983
 30
0.0
 11
198.4287293623583
 21
-167.0
 31
0.0
  0
INSERT
  5
D0DC
330
9829
100
AcDbEntity
  8
30
  6
Continuous
 62
     0
370
    -2
100
AcDbBlockReference
  2
_OPEN
 10
198.428729362358
 20
-197.0474753083983
 30
0.0
 41
2.0
 42
2.0
 43
2.0
 50
270.0
  0
INSERT
  5
D0DD
330
9829
100
AcDbEntity
  8
30
  6
Continuous
 62
     0
370
    -2
100
AcDbBlockReference
  2
_OPEN
 10
198.4287293623583
 20
-165.0
 30
0.0
 41
2.0
 42
2.0
 43
2.0
 50
90.0
  0
MTEXT
  5
D0DE
330
9829
100
AcDbEntity
  8
30
  6
Continuous
 62
     0
100
AcDbMText
 10
192.4287293623583
 20
-181.0237376541991
 30
0.0
 40
6.0
 41
0.0
 71
     5
 72
     1
  1
\A1; 32 
 11
0.0000000000000001
 21
1.0
 31
0.0
 73
     1
 44
1.0
  0
POINT
  5
D0DF
330
9829
100
AcDbEntity
  8
DEFPOINTS
  6
Continuous
 62
     0
100
AcDbPoint
 10
144.9935351126155
 20
-197.0474753083983
 30
0.0
  0
POINT
  5
D0E0
330
9829
100
AcDbEntity
  8
DEFPOINTS
  6
Continuous
 62
     0
100
AcDbPoint
 10
149.5
 20
-164.9999999999999
 30
0.0
  0
POINT
  5
D0E1
330
9829
100
AcDbEntity
  8
DEFPOINTS
  6
Continuous
 62
     0
100
AcDbPoint
 10
198.4287293623583
 20
-165.0
 30
0.0
  0
ENDBLK
  5
9835
330
9829
100
AcDbEntity
  8
0
100
AcDbBlockEnd
  0
BLOCK
  5
9842
330
9836
100
AcDbEntity
  8
0
100
AcDbBlockBegin
  2
*D2
 70
     1
 10
0.0
 20
0.0
 30
0.0
  3
*D2
  1

  0
LINE
  5
D0ED
330
9836
100
AcDbEntity
  8
30
  6
Continuous
 62
     0
370
    -2
100
AcDbLine
 10
152.5
 20
-164.9999999999999
 30
0.0
 11
198.9287293623583
 21
-165.0
 31
0.0
  0
LINE
  5
D0EE
330
9836
100
AcDbEntity
  8
30
  6
Continuous
 62
     0
370
    -2
100
AcDbLine
 10
152.5
 20
-156.9999999999999
 30
0.0
 11
198.9287293623583
 21
-157.0
 31
0.0
  0
LINE
  5
D0EF
330
9836
100
AcDbEntity
  8
30
  6
Continuous
 62
     0
370
    -2
100
AcDbLine
 10
198.428729362358
 20
-167.0
 30
0.0
 11
198.428729362358
 21
-169.0
 31
0.0
  0
LINE
  5
D0F0
330
9836
100
AcDbEntity
  8
30
  6
Continuous
 62
     0
370
    -2
100
AcDbLine
 10
198.428729362358
 20
-155.0
 30
0.0
 11
198.428729362358
 21
-153.0
 31
0.0
  0
MTEXT
  5
D0F1
330
9836
100
AcDbEntity
  8
30
  6
Continuous
 62
     0
100
AcDbMText
 10
193.0
 20
-163.0
 30
0.0
 40
6.0
 41
0.0
 71
     5
 72
     1
  1
\A1; 8 
 11
0.0000000000000001
 21
1.0
 31
0.0
 73
     1
 44
1.0
  0
LINE
  5
D0F2
330
9836
100
AcDbEntity
  8
30
  6
Continuous
 62
     0
370
    -2
100
AcDbLine
 10
198.428729362358
 20
-165.0
 30
0.0
 11
198.428729362358
 21
-157.0
 31
0.0
  0
INSERT
  5
D0F3
330
9836
100
AcDbEntity
  8
30
  6
Continuous
 62
     0
370
    -2
100
AcDbBlockReference
  2
_OPEN
 10
198.428729362358
 20
-165.0
 30
0.0
 41
2.0
 42
2.0
 43
2.0
 50
90.0
  0
INSERT
  5
D0F4
330
9836
100
AcDbEntity
  8
30
  6
Continuous
 62
     0
370
    -2
100
AcDbBlockReference
  2
_OPEN
 10
198.428729362358
 20
-157.0
 30
0.0
 41
2.0
 42
2.0
 43
2.0
 50
270.0
  0
POINT
  5
D0F5
330
9836
100
AcDbEntity
  8
DEFPOINTS
  6
Continuous
 62
     0
100
AcDbPoint
 10
149.5
 20
-164.9999999999999
 30
0.0
  0
POINT
  5
D0F6
330
9836
100
AcDbEntity
  8
DEFPOINTS
  6
Continuous
 62
     0
100
AcDbPoint
 10
149.5
 20
-156.9999999999999
 30
0.0
  0
POINT
  5
D0F7
330
9836
100
AcDbEntity
  8
DEFPOINTS
  6
Continuous
 62
     0
100
AcDbPoint
 10
198.428729362358
 20
-157.0
 30
0.0
  0
ENDBLK
  5
9843
330
9836
100
AcDbEntity
  8
0
100
AcDbBlockEnd
  0
BLOCK
  5
984F
330
9844
100
AcDbEntity
  8
0
100
AcDbBlockBegin
  2
*D3
 70
     1
 10
0.0
 20
0.0
 30
0.0
  3
*D3
  1

  0
LINE
  5
D0F8
330
9844
100
AcDbEntity
  8
30
  6
Continuous
 62
     0
370
    -2
100
AcDbLine
 10
152.5
 20
-156.9999999999999
 30
0.0
 11
198.9287293623583
 21
-157.0
 31
0.0
  0
LINE
  5
D0F9
330
9844
100
AcDbEntity
  8
30
  6
Continuous
 62
     0
370
    -2
100
AcDbLine
 10
182.9935351126155
 20
-132.0474753083987
 30
0.0
 11
198.9287293623583
 21
-132.0474753083987
 31
0.0
  0
LINE
  5
D0FA
330
9844
100
AcDbEntity
  8
30
  6
Continuous
 62
     0
370
    -2
100
AcDbLine
 10
198.4287293623583
 20
-155.0
 30
0.0
 11
198.4287293623583
 21
-134.0474753083987
 31
0.0
  0
INSERT
  5
D0FB
330
9844
100
AcDbEntity
  8
30
  6
Continuous
 62
     0
370
    -2
100
AcDbBlockReference
  2
_OPEN
 10
198.4287293623583
 20
-157.0
 30
0.0
 41
2.0
 42
2.0
 43
2.0
 50
270.0
  0
INSERT
  5
D0FC
330
9844
100
AcDbEntity
  8
30
  6
Continuous
 62
     0
370
    -2
100
AcDbBlockReference
  2
_OPEN
 10
198.4287293623583
 20
-132.0474753083987
 30
0.0
 41
2.0
 42
2.0
 43
2.0
 50
90.0
  0
MTEXT
  5
D0FD
330
9844
100
AcDbEntity
  8
30
  6
Continuous
 62
     0
100
AcDbMText
 10
192.4287293623583
 20
-144.5237376541991
 30
0.0
 40
6.0
 41
0.0
 71
     5
 72
     1
  1
\A1; 25 
 11
0.0000000000000001
 21
1.0
 31
0.0
 73
     1
 44
1.0
  0
POINT
  5
D0FE
330
9844
100
AcDbEntity
  8
DEFPOINTS
  6
Continuous
 62
     0
100
AcDbPoint
 10
149.5
 20
-156.9999999999999
 30
0.0
  0
POINT
  5
D0FF
330
9844
100
AcDbEntity
  8
DEFPOINTS
  6
Continuous
 62
     0
100
AcDbPoint
 10
179.9935351126155
 20
-132.0474753083987
 30
0.0
  0
POINT
  5
D100
330
9844
100
AcDbEntity
  8
DEFPOINTS
  6
Continuous
 62
     0
100
AcDbPoint
 10
198.4287293623583
 20
-132.0474753083987
 30
0.0
  0
ENDBLK
  5
9850
330
9844
100
AcDbEntity
  8
0
100
AcDbBlockEnd
  0
BLOCK
  5
985C
330
9851
100
AcDbEntity
  8
0
100
AcDbBlockBegin
  2
*D4
 70
     1
 10
0.0
 20
0.0
 30
0.0
  3
*D4
  1

  0
LINE
  5
CCAC
330
9851
100
AcDbEntity
  8
30
  6
Continuous
 62
     0
370
    -2
100
AcDbLine
 10
-107.9999999999994
 20
55.45252469160089
 30
0.0
 11
-144.0336879211943
 21
55.45252469160089
 31
0.0
  0
LINE
  5
CCAD
330
9851
100
AcDbEntity
  8
30
  6
Continuous
 62
     0
370
    -2
100
AcDbLine
 10
-107.9999999999994
 20
-0.044908985831564
 30
0.0
 11
-144.0336879211943
 21
-0.0449089858315538
 31
0.0
  0
LINE
  5
CCAE
330
9851
100
AcDbEntity
  8
30
  6
Continuous
 62
     0
370
    -2
100
AcDbLine
 10
-143.5336879211943
 20
53.45252469160089
 30
0.0
 11
-143.5336879211943
 21
1.955091014168446
 31
0.0
  0
INSERT
  5
CCAF
330
9851
100
AcDbEntity
  8
30
  6
Continuous
 62
     0
370
    -2
100
AcDbBlockReference
  2
_OPEN
 10
-143.5336879211943
 20
55.45252469160089
 30
0.0
 41
2.0
 42
2.0
 43
2.0
 50
90.0
  0
INSERT
  5
CCB0
330
9851
100
AcDbEntity
  8
30
  6
Continuous
 62
     0
370
    -2
100
AcDbBlockReference
  2
_OPEN
 10
-143.5336879211943
 20
-0.0449089858315539
 30
0.0
 41
2.0
 42
2.0
 43
2.0
 50
270.0
  0
MTEXT
  5
CCB1
330
9851
100
AcDbEntity
  8
30
  6
Continuous
 62
     0
100
AcDbMText
 10
-149.5336879211943
 20
27.70380785288465
 30
0.0
 40
6.0
 41
0.0
 71
     5
 72
     1
  1
\A1; 55.5 
 11
0.0000000000000001
 21
1.0
 31
0.0
 73
     1
 44
1.0
  0
POINT
  5
CCB2
330
9851
100
AcDbEntity
  8
DEFPOINTS
  6
Continuous
 62
     0
100
AcDbPoint
 10
-104.9999999999994
 20
55.45252469160089
 30
0.0
  0
POINT
  5
CCB3
330
9851
100
AcDbEntity
  8
DEFPOINTS
  6
Continuous
 62
     0
100
AcDbPoint
 10
-104.9999999999994
 20
-0.0449089858315648
 30
0.0
  0
POINT
  5
CCB4
330
9851
100
AcDbEntity
  8
DEFPOINTS
  6
Continuous
 62
     0
100
AcDbPoint
 10
-143.5336879211943
 20
-0.0449089858315539
 30
0.0
  0
ENDBLK
  5
985D
330
9851
100
AcDbEntity
  8
0
100
AcDbBlockEnd
  0
BLOCK
  5
9869
330
985E
100
AcDbEntity
  8
0
100
AcDbBlockBegin
  2
*D5
 70
     1
 10
0.0
 20
0.0
 30
0.0
  3
*D5
  1

  0
LINE
  5
CCA3
330
985E
100
AcDbEntity
  8
30
  6
Continuous
 62
     0
370
    -2
100
AcDbLine
 10
-107.9999999999994
 20
-0.044908985831564
 30
0.0
 11
-144.0336879211943
 21
-0.0449089858315538
 31
0.0
  0
LINE
  5
CCA4
330
985E
100
AcDbEntity
  8
30
  6
Continuous
 62
     0
370
    -2
100
AcDbLine
 10
-107.9999999999994
 20
-46.5474753083988
 30
0.0
 11
-144.0336879211943
 21
-46.54747530839879
 31
0.0
  0
LINE
  5
CCA5
330
985E
100
AcDbEntity
  8
30
  6
Continuous
 62
     0
370
    -2
100
AcDbLine
 10
-143.5336879211943
 20
-2.044908985831553
 30
0.0
 11
-143.5336879211943
 21
-44.54747530839878
 31
0.0
  0
INSERT
  5
CCA6
330
985E
100
AcDbEntity
  8
30
  6
Continuous
 62
     0
370
    -2
100
AcDbBlockReference
  2
_OPEN
 10
-143.5336879211943
 20
-0.0449089858315539
 30
0.0
 41
2.0
 42
2.0
 43
2.0
 50
90.0
  0
INSERT
  5
CCA7
330
985E
100
AcDbEntity
  8
30
  6
Continuous
 62
     0
370
    -2
100
AcDbBlockReference
  2
_OPEN
 10
-143.5336879211943
 20
-46.5474753083988
 30
0.0
 41
2.0
 42
2.0
 43
2.0
 50
270.0
  0
MTEXT
  5
CCA8
330
985E
100
AcDbEntity
  8
30
  6
Continuous
 62
     0
100
AcDbMText
 10
-149.5336879211943
 20
-23.29619214711519
 30
0.0
 40
6.0
 41
0.0
 71
     5
 72
     1
  1
\A1; 46.5 
 11
0.0000000000000001
 21
1.0
 31
0.0
 73
     1
 44
1.0
  0
POINT
  5
CCA9
330
985E
100
AcDbEntity
  8
DEFPOINTS
  6
Continuous
 62
     0
100
AcDbPoint
 10
-104.9999999999994
 20
-0.0449089858315648
 30
0.0
  0
POINT
  5
CCAA
330
985E
100
AcDbEntity
  8
DEFPOINTS
  6
Continuous
 62
     0
100
AcDbPoint
 10
-104.9999999999994
 20
-46.5474753083988
 30
0.0
  0
POINT
  5
CCAB
330
985E
100
AcDbEntity
  8
DEFPOINTS
  6
Continuous
 62
     0
100
AcDbPoint
 10
-143.5336879211943
 20
-46.5474753083988
 30
0.0
  0
ENDBLK
  5
986A
330
985E
100
AcDbEntity
  8
0
100
AcDbBlockEnd
  0
BLOCK
  5
9876
330
986B
100
AcDbEntity
  8
0
100
AcDbBlockBegin
  2
*D6
 70
     1
 10
0.0
 20
0.0
 30
0.0
  3
*D6
  1

  0
LINE
  5
CC9A
330
986B
100
AcDbEntity
  8
30
  6
Continuous
 62
     0
370
    -2
100
AcDbLine
 10
-18.20646488738384
 20
45.02951270952545
 30
0.0
 11
-123.9351942497417
 21
45.02951270952546
 31
0.0
  0
LINE
  5
CC9B
330
986B
100
AcDbEntity
  8
30
  6
Continuous
 62
     0
370
    -2
100
AcDbLine
 10
-18.20646488738384
 20
-44.97048729047428
 30
0.0
 11
-123.9351942497419
 21
-44.97048729047425
 31
0.0
  0
LINE
  5
CC9C
330
986B
100
AcDbEntity
  8
30
  6
Continuous
 62
     0
370
    -2
100
AcDbLine
 10
-123.4351942497418
 20
43.02951270952546
 30
0.0
 11
-123.4351942497418
 21
-42.97048729047425
 31
0.0
  0
INSERT
  5
CC9D
330
986B
100
AcDbEntity
  8
30
  6
Continuous
 62
     0
370
    -2
100
AcDbBlockReference
  2
_OPEN
 10
-123.4351942497418
 20
45.02951270952546
 30
0.0
 41
2.0
 42
2.0
 43
2.0
 50
90.0
  0
INSERT
  5
CC9E
330
986B
100
AcDbEntity
  8
30
  6
Continuous
 62
     0
370
    -2
100
AcDbBlockReference
  2
_OPEN
 10
-123.4351942497418
 20
-44.97048729047425
 30
0.0
 41
2.0
 42
2.0
 43
2.0
 50
270.0
  0
MTEXT
  5
CC9F
330
986B
100
AcDbEntity
  8
30
  6
Continuous
 62
     0
100
AcDbMText
 10
-129.4351942497418
 20
0.0295127095255919
 30
0.0
 40
6.0
 41
0.0
 71
     5
 72
     1
  1
\A1; 90 
 11
0.0000000000000001
 21
1.0
 31
0.0
 73
     1
 44
1.0
  0
POINT
  5
CCA0
330
986B
100
AcDbEntity
  8
DEFPOINTS
  6
Continuous
 62
     0
100
AcDbPoint
 10
-15.20646488738384
 20
45.02951270952544
 30
0.0
  0
POINT
  5
CCA1
330
986B
100
AcDbEntity
  8
DEFPOINTS
  6
Continuous
 62
     0
100
AcDbPoint
 10
-15.20646488738384
 20
-44.97048729047429
 30
0.0
  0
POINT
  5
CCA2
330
986B
100
AcDbEntity
  8
DEFPOINTS
  6
Continuous
 62
     0
100
AcDbPoint
 10
-123.4351942497418
 20
-44.97048729047425
 30
0.0
  0
ENDBLK
  5
9877
330
986B
100
AcDbEntity
  8
0
100
AcDbBlockEnd
  0
BLOCK
  5
9924
330
991A
100
AcDbEntity
  8
0
100
AcDbBlockBegin
  2
*D7
 70
     1
 10
0.0
 20
0.0
 30
0.0
  3
*D7
  1

  0
LINE
  5
CC5B
330
991A
100
AcDbEntity
  8
30
  6
Continuous
 62
     0
370
    -2
100
AcDbLine
 10
-35.00000000000044
 20
-624.5708385812681
 30
0.0
 11
-35.00000000000044
 21
-672.1667135812681
 31
0.0
  0
LINE
  5
CC5C
330
991A
100
AcDbEntity
  8
30
  6
Continuous
 62
     0
370
    -2
100
AcDbLine
 10
34.99999999999909
 20
-624.5708385812681
 30
0.0
 11
34.99999999999909
 21
-672.1667135812681
 31
0.0
  0
LINE
  5
CC5D
330
991A
100
AcDbEntity
  8
30
  6
Continuous
 62
     0
370
    -2
100
AcDbLine
 10
-33.00000000000045
 20
-671.6667135812681
 30
0.0
 11
32.99999999999909
 21
-671.6667135812681
 31
0.0
  0
INSERT
  5
CC5E
330
991A
100
AcDbEntity
  8
30
  6
Continuous
 62
     0
370
    -2
100
AcDbBlockReference
  2
_OPEN
 10
-35.00000000000044
 20
-671.6667135812681
 30
0.0
 41
2.0
 42
2.0
 43
2.0
 50
180.0
  0
INSERT
  5
CC5F
330
991A
100
AcDbEntity
  8
30
  6
Continuous
 62
     0
370
    -2
100
AcDbBlockReference
  2
_OPEN
 10
34.99999999999909
 20
-671.6667135812681
 30
0.0
 41
2.0
 42
2.0
 43
2.0
  0
MTEXT
  5
CC60
330
991A
100
AcDbEntity
  8
30
  6
Continuous
 62
     0
100
AcDbMText
 10
-0.0000000000006782
 20
-665.6667135812681
 30
0.0
 40
6.0
 41
0.0
 71
     5
 72
     1
  1
\A1; 70 
 73
     1
 44
1.0
  0
POINT
  5
CC61
330
991A
100
AcDbEntity
  8
DEFPOINTS
  6
Continuous
 62
     0
100
AcDbPoint
 10
-35.00000000000044
 20
-621.5708385812681
 30
0.0
  0
POINT
  5
CC62
330
991A
100
AcDbEntity
  8
DEFPOINTS
  6
Continuous
 62
     0
100
AcDbPoint
 10
34.99999999999909
 20
-621.5708385812681
 30
0.0
  0
POINT
  5
CC63
330
991A
100
AcDbEntity
  8
DEFPOINTS
  6
Continuous
 62
     0
100
AcDbPoint
 10
34.99999999999909
 20
-671.6667135812681
 30
0.0
  0
ENDBLK
  5
9925
330
991A
100
AcDbEntity
  8
0
100
AcDbBlockEnd
  0
BLOCK
  5
992F
330
9926
100
AcDbEntity
  8
0
100
AcDbBlockBegin
  2
*D8
 70
     1
 10
0.0
 20
0.0
 30
0.0
  3
*D8
  1

  0
LINE
  5
CC53
330
9926
100
AcDbEntity
  8
30
  6
Continuous
 62
     0
370
    -2
100
AcDbLine
 10
30.68116247708587
 20
-612.4057885591687
 30
0.0
 11
29.24154995417035
 21
-611.0174385370688
 31
0.0
  0
LINE
  5
CC54
330
9926
100
AcDbEntity
  8
30
  6
Continuous
 62
     0
370
    -2
100
AcDbLine
 10
29.24154995417035
 20
-611.0174385370688
 30
0.0
 11
16.24154995417027
 21
-611.0174385370688
 31
0.0
  0
INSERT
  5
CC55
330
9926
100
AcDbEntity
  8
30
  6
Continuous
 62
     0
370
    -2
100
AcDbBlockReference
  2
_OPEN
 10
32.12077500000146
 20
-613.7941385812687
 30
0.0
 41
2.0
 42
2.0
 43
2.0
 50
316.0384873416543
  0
MTEXT
  5
CC56
330
9926
100
AcDbEntity
  8
30
  6
Continuous
 62
     0
100
AcDbMText
 10
21.24154995417029
 20
-605.017438537069
 30
0.0
 40
6.0
 41
0.0
 71
     5
 72
     1
  1
\A1;\U+22058
 73
     1
 44
1.0
  0
LINE
  5
CC57
330
9926
100
AcDbEntity
  8
30
  6
Continuous
 62
     0
370
    -2
100
AcDbLine
 10
34.91000000000082
 20
-616.5708385812687
 30
0.0
 11
35.09000000000082
 21
-616.5708385812687
 31
0.0
  0
LINE
  5
CC58
330
9926
100
AcDbEntity
  8
30
  6
Continuous
 62
     0
370
    -2
100
AcDbLine
 10
35.00000000000079
 20
-616.6608385812687
 30
0.0
 11
35.00000000000079
 21
-616.4808385812688
 31
0.0
  0
POINT
  5
CC59
330
9926
100
AcDbEntity
  8
DEFPOINTS
  6
Continuous
 62
     0
100
AcDbPoint
 10
32.12077500000146
 20
-613.7941385812687
 30
0.0
  0
POINT
  5
CC5A
330
9926
100
AcDbEntity
  8
DEFPOINTS
  6
Continuous
 62
     0
100
AcDbPoint
 10
37.87922500000013
 20
-619.3475385812687
 30
0.0
  0
ENDBLK
  5
9930
330
9926
100
AcDbEntity
  8
0
100
AcDbBlockEnd
  0
BLOCK
  5
99A6
330
999B
100
AcDbEntity
  8
0
100
AcDbBlockBegin
  2
*D9
 70
     1
 10
0.0
 20
0.0
 30
0.0
  3
*D9
  1

  0
LINE
  5
CCFB
330
999B
100
AcDbEntity
  8
30
  6
Continuous
 62
     0
370
    -2
100
AcDbLine
 10
317.2
 20
-453.5708385812683
 30
0.0
 11
266.1460999999999
 21
-453.5708385812683
 31
0.0
  0
LINE
  5
CCFC
330
999B
100
AcDbEntity
  8
30
  6
Continuous
 62
     0
370
    -2
100
AcDbLine
 10
317.2
 20
-545.5708385812681
 30
0.0
 11
266.1460999999999
 21
-545.5708385812681
 31
0.0
  0
LINE
  5
CCFD
330
999B
100
AcDbEntity
  8
30
  6
Continuous
 62
     0
370
    -2
100
AcDbLine
 10
266.6460999999999
 20
-455.5708385812684
 30
0.0
 11
266.6460999999999
 21
-543.5708385812681
 31
0.0
  0
INSERT
  5
CCFE
330
999B
100
AcDbEntity
  8
30
  6
Continuous
 62
     0
370
    -2
100
AcDbBlockReference
  2
_OPEN
 10
266.6460999999999
 20
-453.5708385812683
 30
0.0
 41
2.0
 42
2.0
 43
2.0
 50
90.0
  0
INSERT
  5
CCFF
330
999B
100
AcDbEntity
  8
30
  6
Continuous
 62
     0
370
    -2
100
AcDbBlockReference
  2
_OPEN
 10
266.6460999999999
 20
-545.5708385812681
 30
0.0
 41
2.0
 42
2.0
 43
2.0
 50
270.0
  0
MTEXT
  5
CD00
330
999B
100
AcDbEntity
  8
30
  6
Continuous
 62
     0
100
AcDbMText
 10
260.6460999999999
 20
-499.5708385812681
 30
0.0
 40
6.0
 41
0.0
 71
     5
 72
     1
  1
\A1; 92 
 11
0.0000000000000001
 21
1.0
 31
0.0
 73
     1
 44
1.0
  0
POINT
  5
CD01
330
999B
100
AcDbEntity
  8
DEFPOINTS
  6
Continuous
 62
     0
100
AcDbPoint
 10
320.1999999999998
 20
-453.5708385812683
 30
0.0
  0
POINT
  5
CD02
330
999B
100
AcDbEntity
  8
DEFPOINTS
  6
Continuous
 62
     0
100
AcDbPoint
 10
320.1999999999998
 20
-545.5708385812681
 30
0.0
  0
POINT
  5
CD03
330
999B
100
AcDbEntity
  8
DEFPOINTS
  6
Continuous
 62
     0
100
AcDbPoint
 10
266.6460999999999
 20
-545.5708385812681
 30
0.0
  0
ENDBLK
  5
99A7
330
999B
100
AcDbEntity
  8
0
100
AcDbBlockEnd
  0
BLOCK
  5
99FA
330
99F0
100
AcDbEntity
  8
0
100
AcDbBlockBegin
  2
*D10
 70
     1
 10
0.0
 20
0.0
 30
0.0
  3
*D10
  1

  0
LINE
  5
CC76
330
99F0
100
AcDbEntity
  8
30
  6
Continuous
 62
     0
370
    -2
100
AcDbLine
 10
-69.99999999999954
 20
-224.9704872904738
 30
0.0
 11
-69.99999999999954
 21
-247.5663622904738
 31
0.0
  0
LINE
  5
CC77
330
99F0
100
AcDbEntity
  8
30
  6
Continuous
 62
     0
370
    -2
100
AcDbLine
 10
0.0000000000004545
 20
-199.9704872904739
 30
0.0
 11
0.0000000000004516
 21
-247.5663622904738
 31
0.0
  0
LINE
  5
CC78
330
99F0
100
AcDbEntity
  8
30
  6
Continuous
 62
     0
370
    -2
100
AcDbLine
 10
-67.99999999999954
 20
-247.0663622904738
 30
0.0
 11
-1.999999999999548
 21
-247.0663622904738
 31
0.0
  0
INSERT
  5
CC79
330
99F0
100
AcDbEntity
  8
30
  6
Continuous
 62
     0
370
    -2
100
AcDbBlockReference
  2
_OPEN
 10
-69.99999999999954
 20
-247.0663622904738
 30
0.0
 41
2.0
 42
2.0
 43
2.0
 50
180.0
  0
INSERT
  5
CC7A
330
99F0
100
AcDbEntity
  8
30
  6
Continuous
 62
     0
370
    -2
100
AcDbBlockReference
  2
_OPEN
 10
0.0000000000004516
 20
-247.0663622904738
 30
0.0
 41
2.0
 42
2.0
 43
2.0
  0
MTEXT
  5
CC7B
330
99F0
100
AcDbEntity
  8
30
  6
Continuous
 62
     0
100
AcDbMText
 10
-34.99999999999953
 20
-241.0663622904738
 30
0.0
 40
6.0
 41
0.0
 71
     5
 72
     1
  1
\A1; 70 
 73
     1
 44
1.0
  0
POINT
  5
CC7C
330
99F0
100
AcDbEntity
  8
DEFPOINTS
  6
Continuous
 62
     0
100
AcDbPoint
 10
-69.99999999999954
 20
-221.9704872904738
 30
0.0
  0
POINT
  5
CC7D
330
99F0
100
AcDbEntity
  8
DEFPOINTS
  6
Continuous
 62
     0
100
AcDbPoint
 10
0.0000000000004547
 20
-196.9704872904739
 30
0.0
  0
POINT
  5
CC7E
330
99F0
100
AcDbEntity
  8
DEFPOINTS
  6
Continuous
 62
     0
100
AcDbPoint
 10
0.0000000000004516
 20
-247.0663622904738
 30
0.0
  0
ENDBLK
  5
99FB
330
99F0
100
AcDbEntity
  8
0
100
AcDbBlockEnd
  0
BLOCK
  5
9A06
330
99FC
100
AcDbEntity
  8
0
100
AcDbBlockBegin
  2
*D11
 70
     1
 10
0.0
 20
0.0
 30
0.0
  3
*D11
  1

  0
LINE
  5
CC64
330
99FC
100
AcDbEntity
  8
30
  6
Continuous
 62
     0
370
    -2
100
AcDbLine
 10
-0.0000000000000002
 20
-214.970487290474
 30
0.0
 11
-0.0000000000000022
 21
-247.5663622904738
 31
0.0
  0
LINE
  5
CC65
330
99FC
100
AcDbEntity
  8
30
  6
Continuous
 62
     0
370
    -2
100
AcDbLine
 10
70.0
 20
-224.9704872904738
 30
0.0
 11
70.0
 21
-247.5663622904738
 31
0.0
  0
LINE
  5
CC66
330
99FC
100
AcDbEntity
  8
30
  6
Continuous
 62
     0
370
    -2
100
AcDbLine
 10
1.999999999999995
 20
-247.0663622904738
 30
0.0
 11
68.0
 21
-247.0663622904738
 31
0.0
  0
INSERT
  5
CC67
330
99FC
100
AcDbEntity
  8
30
  6
Continuous
 62
     0
370
    -2
100
AcDbBlockReference
  2
_OPEN
 10
-0.0000000000000021
 20
-247.0663622904738
 30
0.0
 41
2.0
 42
2.0
 43
2.0
 50
180.0
  0
INSERT
  5
CC68
330
99FC
100
AcDbEntity
  8
30
  6
Continuous
 62
     0
370
    -2
100
AcDbBlockReference
  2
_OPEN
 10
70.0
 20
-247.0663622904738
 30
0.0
 41
2.0
 42
2.0
 43
2.0
  0
MTEXT
  5
CC69
330
99FC
100
AcDbEntity
  8
30
  6
Continuous
 62
     0
100
AcDbMText
 10
35.0
 20
-241.0663622904738
 30
0.0
 40
6.0
 41
0.0
 71
     5
 72
     1
  1
\A1; 70 
 73
     1
 44
1.0
  0
POINT
  5
CC6A
330
99FC
100
AcDbEntity
  8
DEFPOINTS
  6
Continuous
 62
     0
100
AcDbPoint
 10
0.0
 20
-211.970487290474
 30
0.0
  0
POINT
  5
CC6B
330
99FC
100
AcDbEntity
  8
DEFPOINTS
  6
Continuous
 62
     0
100
AcDbPoint
 10
70.0
 20
-221.9704872904738
 30
0.0
  0
POINT
  5
CC6C
330
99FC
100
AcDbEntity
  8
DEFPOINTS
  6
Continuous
 62
     0
100
AcDbPoint
 10
70.0
 20
-247.0663622904738
 30
0.0
  0
ENDBLK
  5
9A07
330
99FC
100
AcDbEntity
  8
0
100
AcDbBlockEnd
  0
BLOCK
  5
9A12
330
9A08
100
AcDbEntity
  8
0
100
AcDbBlockBegin
  2
*D12
 70
     1
 10
0.0
 20
0.0
 30
0.0
  3
*D12
  1

  0
LINE
  5
CD47
330
9A08
100
AcDbEntity
  8
30
  6
Continuous
 62
     0
370
    -2
100
AcDbLine
 10
70.0
 20
-224.9704872904738
 30
0.0
 11
70.0
 21
-247.6433503083983
 31
0.0
  0
LINE
  5
CD48
330
9A08
100
AcDbEntity
  8
30
  6
Continuous
 62
     0
370
    -2
100
AcDbLine
 10
139.9935351126159
 20
-232.8828667235274
 30
0.0
 11
139.9935351126159
 21
-247.6433503083983
 31
0.0
  0
LINE
  5
CD49
330
9A08
100
AcDbEntity
  8
30
  6
Continuous
 62
     0
370
    -2
100
AcDbLine
 10
72.0
 20
-247.1433503083983
 30
0.0
 11
137.9935351126159
 21
-247.1433503083983
 31
0.0
  0
INSERT
  5
CD4A
330
9A08
100
AcDbEntity
  8
30
  6
Continuous
 62
     0
370
    -2
100
AcDbBlockReference
  2
_OPEN
 10
70.0
 20
-247.1433503083983
 30
0.0
 41
2.0
 42
2.0
 43
2.0
 50
180.0
  0
INSERT
  5
CD4B
330
9A08
100
AcDbEntity
  8
30
  6
Continuous
 62
     0
370
    -2
100
AcDbBlockReference
  2
_OPEN
 10
139.9935351126159
 20
-247.1433503083983
 30
0.0
 41
2.0
 42
2.0
 43
2.0
  0
MTEXT
  5
CD4C
330
9A08
100
AcDbEntity
  8
30
  6
Continuous
 62
     0
100
AcDbMText
 10
104.9967675563079
 20
-241.1433503083983
 30
0.0
 40
6.0
 41
0.0
 71
     5
 72
     1
  1
\A1; 70 
 73
     1
 44
1.0
  0
POINT
  5
CD4D
330
9A08
100
AcDbEntity
  8
DEFPOINTS
  6
Continuous
 62
     0
100
AcDbPoint
 10
70.0
 20
-221.9704872904738
 30
0.0
  0
POINT
  5
CD4E
330
9A08
100
AcDbEntity
  8
DEFPOINTS
  6
Continuous
 62
     0
100
AcDbPoint
 10
139.9935351126159
 20
-229.8828667235274
 30
0.0
  0
POINT
  5
CD4F
330
9A08
100
AcDbEntity
  8
DEFPOINTS
  6
Continuous
 62
     0
100
AcDbPoint
 10
139.9935351126159
 20
-247.1433503083983
 30
0.0
  0
ENDBLK
  5
9A13
330
9A08
100
AcDbEntity
  8
0
100
AcDbBlockEnd
  0
BLOCK
  5
9A1E
330
9A14
100
AcDbEntity
  8
0
100
AcDbBlockBegin
  2
*D13
 70
     1
 10
0.0
 20
0.0
 30
0.0
  3
*D13
  1

  0
LINE
  5
CC6D
330
9A14
100
AcDbEntity
  8
30
  6
Continuous
 62
     0
370
    -2
100
AcDbLine
 10
-104.9999999999994
 20
-139.9704872904738
 30
0.0
 11
-104.9999999999994
 21
-277.5663622904736
 31
0.0
  0
LINE
  5
CC6E
330
9A14
100
AcDbEntity
  8
30
  6
Continuous
 62
     0
370
    -2
100
AcDbLine
 10
0.0000000000004545
 20
-199.9704872904739
 30
0.0
 11
0.0000000000004498
 21
-277.5663622904736
 31
0.0
  0
LINE
  5
CC6F
330
9A14
100
AcDbEntity
  8
30
  6
Continuous
 62
     0
370
    -2
100
AcDbLine
 10
-102.9999999999995
 20
-277.0663622904736
 30
0.0
 11
-1.999999999999548
 21
-277.0663622904736
 31
0.0
  0
INSERT
  5
CC70
330
9A14
100
AcDbEntity
  8
30
  6
Continuous
 62
     0
370
    -2
100
AcDbBlockReference
  2
_OPEN
 10
-104.9999999999994
 20
-277.0663622904736
 30
0.0
 41
2.0
 42
2.0
 43
2.0
 50
180.0
  0
INSERT
  5
CC71
330
9A14
100
AcDbEntity
  8
30
  6
Continuous
 62
     0
370
    -2
100
AcDbBlockReference
  2
_OPEN
 10
0.0000000000004498
 20
-277.0663622904736
 30
0.0
 41
2.0
 42
2.0
 43
2.0
  0
MTEXT
  5
CC72
330
9A14
100
AcDbEntity
  8
30
  6
Continuous
 62
     0
100
AcDbMText
 10
-52.49999999999953
 20
-271.0663622904736
 30
0.0
 40
6.0
 41
0.0
 71
     5
 72
     1
  1
\A1; 105 
 73
     1
 44
1.0
  0
POINT
  5
CC73
330
9A14
100
AcDbEntity
  8
DEFPOINTS
  6
Continuous
 62
     0
100
AcDbPoint
 10
-104.9999999999994
 20
-136.9704872904738
 30
0.0
  0
POINT
  5
CC74
330
9A14
100
AcDbEntity
  8
DEFPOINTS
  6
Continuous
 62
     0
100
AcDbPoint
 10
0.0000000000004547
 20
-196.9704872904739
 30
0.0
  0
POINT
  5
CC75
330
9A14
100
AcDbEntity
  8
DEFPOINTS
  6
Continuous
 62
     0
100
AcDbPoint
 10
0.0000000000004498
 20
-277.0663622904736
 30
0.0
  0
ENDBLK
  5
9A1F
330
9A14
100
AcDbEntity
  8
0
100
AcDbBlockEnd
  0
BLOCK
  5
9A2A
330
9A20
100
AcDbEntity
  8
0
100
AcDbBlockBegin
  2
*D14
 70
     1
 10
0.0
 20
0.0
 30
0.0
  3
*D14
  1

  0
LINE
  5
CC1D
330
9A20
100
AcDbEntity
  8
30
  6
Continuous
 62
     0
370
    -2
100
AcDbLine
 10
0.0000000000004545
 20
-199.9704872904739
 30
0.0
 11
0.0000000000004498
 21
-277.6433503083981
 31
0.0
  0
LINE
  5
CC1E
330
9A20
100
AcDbEntity
  8
30
  6
Continuous
 62
     0
370
    -2
100
AcDbLine
 10
174.9935351126158
 20
-140.0474753083985
 30
0.0
 11
174.9935351126158
 21
-277.6433503083981
 31
0.0
  0
LINE
  5
CC1F
330
9A20
100
AcDbEntity
  8
30
  6
Continuous
 62
     0
370
    -2
100
AcDbLine
 10
2.000000000000448
 20
-277.1433503083981
 30
0.0
 11
172.9935351126158
 21
-277.1433503083981
 31
0.0
  0
INSERT
  5
CC20
330
9A20
100
AcDbEntity
  8
30
  6
Continuous
 62
     0
370
    -2
100
AcDbBlockReference
  2
_OPEN
 10
0.0000000000004498
 20
-277.1433503083981
 30
0.0
 41
2.0
 42
2.0
 43
2.0
 50
180.0
  0
INSERT
  5
CC21
330
9A20
100
AcDbEntity
  8
30
  6
Continuous
 62
     0
370
    -2
100
AcDbBlockReference
  2
_OPEN
 10
174.9935351126158
 20
-277.1433503083981
 30
0.0
 41
2.0
 42
2.0
 43
2.0
  0
MTEXT
  5
CC22
330
9A20
100
AcDbEntity
  8
30
  6
Continuous
 62
     0
100
AcDbMText
 10
87.49676755630817
 20
-271.1433503083981
 30
0.0
 40
6.0
 41
0.0
 71
     5
 72
     1
  1
\A1; 175 
 73
     1
 44
1.0
  0
POINT
  5
CC23
330
9A20
100
AcDbEntity
  8
DEFPOINTS
  6
Continuous
 62
     0
100
AcDbPoint
 10
0.0000000000004547
 20
-196.9704872904739
 30
0.0
  0
POINT
  5
CC24
330
9A20
100
AcDbEntity
  8
DEFPOINTS
  6
Continuous
 62
     0
100
AcDbPoint
 10
174.9935351126158
 20
-137.0474753083985
 30
0.0
  0
POINT
  5
CC25
330
9A20
100
AcDbEntity
  8
DEFPOINTS
  6
Continuous
 62
     0
100
AcDbPoint
 10
174.9935351126158
 20
-277.1433503083981
 30
0.0
  0
ENDBLK
  5
9A2B
330
9A20
100
AcDbEntity
  8
0
100
AcDbBlockEnd
  0
BLOCK
  5
9A36
330
9A2C
100
AcDbEntity
  8
0
100
AcDbBlockBegin
  2
*D15
 70
     1
 10
0.0
 20
0.0
 30
0.0
  3
*D15
  1

  0
LINE
  5
CC14
330
9A2C
100
AcDbEntity
  8
30
  6
Continuous
 62
     0
370
    -2
100
AcDbLine
 10
-104.9999999999994
 20
-139.9704872904738
 30
0.0
 11
-104.9999999999994
 21
-307.6433503083981
 31
0.0
  0
LINE
  5
CC15
330
9A2C
100
AcDbEntity
  8
30
  6
Continuous
 62
     0
370
    -2
100
AcDbLine
 10
174.9935351126158
 20
-140.0474753083985
 30
0.0
 11
174.9935351126158
 21
-307.6433503083981
 31
0.0
  0
LINE
  5
CC16
330
9A2C
100
AcDbEntity
  8
30
  6
Continuous
 62
     0
370
    -2
100
AcDbLine
 10
-102.9999999999995
 20
-307.143350308398
 30
0.0
 11
172.9935351126158
 21
-307.143350308398
 31
0.0
  0
INSERT
  5
CC17
330
9A2C
100
AcDbEntity
  8
30
  6
Continuous
 62
     0
370
    -2
100
AcDbBlockReference
  2
_OPEN
 10
-104.9999999999994
 20
-307.143350308398
 30
0.0
 41
2.0
 42
2.0
 43
2.0
 50
180.0
  0
INSERT
  5
CC18
330
9A2C
100
AcDbEntity
  8
30
  6
Continuous
 62
     0
370
    -2
100
AcDbBlockReference
  2
_OPEN
 10
174.9935351126158
 20
-307.143350308398
 30
0.0
 41
2.0
 42
2.0
 43
2.0
  0
MTEXT
  5
CC19
330
9A2C
100
AcDbEntity
  8
30
  6
Continuous
 62
     0
100
AcDbMText
 10
34.99676755630817
 20
-301.1433503083981
 30
0.0
 40
6.0
 41
0.0
 71
     5
 72
     1
  1
\A1; 280 
 73
     1
 44
1.0
  0
POINT
  5
CC1A
330
9A2C
100
AcDbEntity
  8
DEFPOINTS
  6
Continuous
 62
     0
100
AcDbPoint
 10
-104.9999999999994
 20
-136.9704872904738
 30
0.0
  0
POINT
  5
CC1B
330
9A2C
100
AcDbEntity
  8
DEFPOINTS
  6
Continuous
 62
     0
100
AcDbPoint
 10
174.9935351126158
 20
-137.0474753083985
 30
0.0
  0
POINT
  5
CC1C
330
9A2C
100
AcDbEntity
  8
DEFPOINTS
  6
Continuous
 62
     0
100
AcDbPoint
 10
174.9935351126158
 20
-307.143350308398
 30
0.0
  0
ENDBLK
  5
9A37
330
9A2C
100
AcDbEntity
  8
0
100
AcDbBlockEnd
  0
BLOCK
  5
9A51
330
9A45
100
AcDbEntity
  8
0
100
AcDbBlockBegin
  2
*D16
 70
     1
 10
0.0
 20
0.0
 30
0.0
  3
*D16
  1

  0
LINE
  5
CC0B
330
9A45
100
AcDbEntity
  8
30
  6
Continuous
 62
     0
370
    -2
100
AcDbLine
 10
167.9935351126155
 20
-212.0474753083985
 30
0.0
 11
198.9287293623583
 21
-212.0474753083985
 31
0.0
  0
LINE
  5
CC0C
330
9A45
100
AcDbEntity
  8
30
  6
Continuous
 62
     0
370
    -2
100
AcDbLine
 10
147.9935351126155
 20
-197.0474753083983
 30
0.0
 11
198.9287293623583
 21
-197.0474753083983
 31
0.0
  0
LINE
  5
CC0D
330
9A45
100
AcDbEntity
  8
30
  6
Continuous
 62
     0
370
    -2
100
AcDbLine
 10
198.428729362358
 20
-210.0474753083985
 30
0.0
 11
198.428729362358
 21
-199.0474753083983
 31
0.0
  0
INSERT
  5
CC0E
330
9A45
100
AcDbEntity
  8
30
  6
Continuous
 62
     0
370
    -2
100
AcDbBlockReference
  2
_OPEN
 10
198.428729362358
 20
-212.0474753083985
 30
0.0
 41
2.0
 42
2.0
 43
2.0
 50
270.0
  0
INSERT
  5
CC0F
330
9A45
100
AcDbEntity
  8
30
  6
Continuous
 62
     0
370
    -2
100
AcDbBlockReference
  2
_OPEN
 10
198.428729362358
 20
-197.0474753083983
 30
0.0
 41
2.0
 42
2.0
 43
2.0
 50
90.0
  0
MTEXT
  5
CC10
330
9A45
100
AcDbEntity
  8
30
  6
Continuous
 62
     0
100
AcDbMText
 10
192.4287293623583
 20
-207.9525246916014
 30
0.0
 40
6.0
 41
0.0
 71
     5
 72
     1
  1
\A1; 15 
 11
0.0000000000000001
 21
1.0
 31
0.0
 73
     1
 44
1.0
  0
POINT
  5
CC11
330
9A45
100
AcDbEntity
  8
DEFPOINTS
  6
Continuous
 62
     0
100
AcDbPoint
 10
164.9935351126155
 20
-212.0474753083985
 30
0.0
  0
POINT
  5
CC12
330
9A45
100
AcDbEntity
  8
DEFPOINTS
  6
Continuous
 62
     0
100
AcDbPoint
 10
144.9935351126155
 20
-197.0474753083983
 30
0.0
  0
POINT
  5
CC13
330
9A45
100
AcDbEntity
  8
DEFPOINTS
  6
Continuous
 62
     0
100
AcDbPoint
 10
198.428729362358
 20
-197.0474753083983
 30
0.0
  0
ENDBLK
  5
9A52
330
9A45
100
AcDbEntity
  8
0
100
AcDbBlockEnd
  0
BLOCK
  5
9A76
330
9A6B
100
AcDbEntity
  8
0
100
AcDbBlockBegin
  2
*D17
 70
     1
 10
0.0
 20
0.0
 30
0.0
  3
*D17
  1

  0
LINE
  5
CCBD
330
9A6B
100
AcDbEntity
  8
30
  6
Continuous
 62
     0
370
    -2
100
AcDbLine
 10
-107.9999999999994
 20
141.0295127095253
 30
0.0
 11
-105.4999999999995
 21
141.0295127095253
 31
0.0
  0
LINE
  5
CCBE
330
9A6B
100
AcDbEntity
  8
30
  6
Continuous
 62
     0
370
    -2
100
AcDbLine
 10
-44.99999999999977
 20
251.029512709525
 30
0.0
 11
-105.4999999999995
 21
251.029512709525
 31
0.0
  0
LINE
  5
CCBF
330
9A6B
100
AcDbEntity
  8
30
  6
Continuous
 62
     0
370
    -2
100
AcDbLine
 10
-104.9999999999994
 20
143.0295127095253
 30
0.0
 11
-104.9999999999994
 21
249.029512709525
 31
0.0
  0
INSERT
  5
CCC0
330
9A6B
100
AcDbEntity
  8
30
  6
Continuous
 62
     0
370
    -2
100
AcDbBlockReference
  2
_OPEN
 10
-104.9999999999994
 20
141.0295127095253
 30
0.0
 41
2.0
 42
2.0
 43
2.0
 50
270.0
  0
INSERT
  5
CCC1
330
9A6B
100
AcDbEntity
  8
30
  6
Continuous
 62
     0
370
    -2
100
AcDbBlockReference
  2
_OPEN
 10
-104.9999999999994
 20
251.029512709525
 30
0.0
 41
2.0
 42
2.0
 43
2.0
 50
90.0
  0
MTEXT
  5
CCC2
330
9A6B
100
AcDbEntity
  8
30
  6
Continuous
 62
     0
100
AcDbMText
 10
-110.9999999999994
 20
196.0295127095251
 30
0.0
 40
6.0
 41
0.0
 71
     5
 72
     1
  1
\A1; 110 
 11
0.0000000000000001
 21
1.0
 31
0.0
 73
     1
 44
1.0
  0
POINT
  5
CCC3
330
9A6B
100
AcDbEntity
  8
DEFPOINTS
  6
Continuous
 62
     0
100
AcDbPoint
 10
-104.9999999999994
 20
141.0295127095253
 30
0.0
  0
POINT
  5
CCC4
330
9A6B
100
AcDbEntity
  8
DEFPOINTS
  6
Continuous
 62
     0
100
AcDbPoint
 10
-41.99999999999977
 20
251.029512709525
 30
0.0
  0
POINT
  5
CCC5
330
9A6B
100
AcDbEntity
  8
DEFPOINTS
  6
Continuous
 62
     0
100
AcDbPoint
 10
-104.9999999999994
 20
251.029512709525
 30
0.0
  0
ENDBLK
  5
9A77
330
9A6B
100
AcDbEntity
  8
0
100
AcDbBlockEnd
  0
BLOCK
  5
B27E
330
B274
100
AcDbEntity
  8
0
100
AcDbBlockBegin
  2
*D18
 70
     1
 10
0.0
 20
0.0
 30
0.0
  3
*D18
  1

  0
LINE
  5
CC4A
330
B274
100
AcDbEntity
  8
30
  6
Continuous
 62
     0
370
    -2
100
AcDbLine
 10
-97.99999999999933
 20
-212.0474753083985
 30
0.0
 11
-178.6134758423905
 21
-212.0474753083985
 31
0.0
  0
LINE
  5
CC4B
330
B274
100
AcDbEntity
  8
30
  6
Continuous
 62
     0
370
    -2
100
AcDbLine
 10
-112.9999999999993
 20
-132.0474753083987
 30
0.0
 11
-178.6134758423905
 21
-132.0474753083987
 31
0.0
  0
LINE
  5
CC4C
330
B274
100
AcDbEntity
  8
30
  6
Continuous
 62
     0
370
    -2
100
AcDbLine
 10
-178.1134758423905
 20
-210.0474753083985
 30
0.0
 11
-178.1134758423905
 21
-134.0474753083987
 31
0.0
  0
INSERT
  5
CC4D
330
B274
100
AcDbEntity
  8
30
  6
Continuous
 62
     0
370
    -2
100
AcDbBlockReference
  2
_OPEN
 10
-178.1134758423905
 20
-212.0474753083985
 30
0.0
 41
2.0
 42
2.0
 43
2.0
 50
270.0
  0
INSERT
  5
CC4E
330
B274
100
AcDbEntity
  8
30
  6
Continuous
 62
     0
370
    -2
100
AcDbBlockReference
  2
_OPEN
 10
-178.1134758423905
 20
-132.0474753083987
 30
0.0
 41
2.0
 42
2.0
 43
2.0
 50
90.0
  0
MTEXT
  5
CC4F
330
B274
100
AcDbEntity
  8
30
  6
Continuous
 62
     0
100
AcDbMText
 10
-184.1134758423905
 20
-172.0474753083983
 30
0.0
 40
6.0
 41
0.0
 71
     5
 72
     1
  1
\A1; 80 
 11
0.0000000000000001
 21
1.0
 31
0.0
 73
     1
 44
1.0
  0
POINT
  5
CC50
330
B274
100
AcDbEntity
  8
DEFPOINTS
  6
Continuous
 62
     0
100
AcDbPoint
 10
-94.99999999999932
 20
-212.0474753083985
 30
0.0
  0
POINT
  5
CC51
330
B274
100
AcDbEntity
  8
DEFPOINTS
  6
Continuous
 62
     0
100
AcDbPoint
 10
-109.9999999999992
 20
-132.0474753083987
 30
0.0
  0
POINT
  5
CC52
330
B274
100
AcDbEntity
  8
DEFPOINTS
  6
Continuous
 62
     0
100
AcDbPoint
 10
-178.1134758423905
 20
-132.0474753083987
 30
0.0
  0
ENDBLK
  5
B27F
330
B274
100
AcDbEntity
  8
0
100
AcDbBlockEnd
  0
BLOCK
  5
B28A
330
B280
100
AcDbEntity
  8
0
100
AcDbBlockBegin
  2
*D19
 70
     1
 10
0.0
 20
0.0
 30
0.0
  3
*D19
  1

  0
LINE
  5
CC2F
330
B280
100
AcDbEntity
  8
30
  6
Continuous
 62
     0
370
    -2
100
AcDbLine
 10
-112.9999999999993
 20
-132.0474753083987
 30
0.0
 11
-178.6134758423905
 21
-132.0474753083987
 31
0.0
  0
LINE
  5
CC30
330
B280
100
AcDbEntity
  8
30
  6
Continuous
 62
     0
370
    -2
100
AcDbLine
 10
-112.9999999999993
 20
140.9525246916006
 30
0.0
 11
-178.6134758423905
 21
140.9525246916006
 31
0.0
  0
LINE
  5
CC31
330
B280
100
AcDbEntity
  8
30
  6
Continuous
 62
     0
370
    -2
100
AcDbLine
 10
-178.1134758423905
 20
-130.0474753083987
 30
0.0
 11
-178.1134758423905
 21
138.9525246916005
 31
0.0
  0
INSERT
  5
CC32
330
B280
100
AcDbEntity
  8
30
  6
Continuous
 62
     0
370
    -2
100
AcDbBlockReference
  2
_OPEN
 10
-178.1134758423905
 20
-132.0474753083987
 30
0.0
 41
2.0
 42
2.0
 43
2.0
 50
270.0
  0
INSERT
  5
CC33
330
B280
100
AcDbEntity
  8
30
  6
Continuous
 62
     0
370
    -2
100
AcDbBlockReference
  2
_OPEN
 10
-178.1134758423905
 20
140.9525246916006
 30
0.0
 41
2.0
 42
2.0
 43
2.0
 50
90.0
  0
MTEXT
  5
CC34
330
B280
100
AcDbEntity
  8
30
  6
Continuous
 62
     0
100
AcDbMText
 10
-184.1134758423905
 20
4.452524691600967
 30
0.0
 40
6.0
 41
0.0
 71
     5
 72
     1
  1
\A1; 273 
 11
0.0000000000000001
 21
1.0
 31
0.0
 73
     1
 44
1.0
  0
POINT
  5
CC35
330
B280
100
AcDbEntity
  8
DEFPOINTS
  6
Continuous
 62
     0
100
AcDbPoint
 10
-109.9999999999992
 20
-132.0474753083987
 30
0.0
  0
POINT
  5
CC36
330
B280
100
AcDbEntity
  8
DEFPOINTS
  6
Continuous
 62
     0
100
AcDbPoint
 10
-109.9999999999992
 20
140.9525246916006
 30
0.0
  0
POINT
  5
CC37
330
B280
100
AcDbEntity
  8
DEFPOINTS
  6
Continuous
 62
     0
100
AcDbPoint
 10
-178.1134758423905
 20
140.9525246916006
 30
0.0
  0
ENDBLK
  5
B28B
330
B280
100
AcDbEntity
  8
0
100
AcDbBlockEnd
  0
BLOCK
  5
B296
330
B28C
100
AcDbEntity
  8
0
100
AcDbBlockBegin
  2
*D20
 70
     1
 10
0.0
 20
0.0
 30
0.0
  3
*D20
  1

  0
LINE
  5
CC91
330
B28C
100
AcDbEntity
  8
30
  6
Continuous
 62
     0
370
    -2
100
AcDbLine
 10
-112.9999999999993
 20
140.9525246916006
 30
0.0
 11
-162.1993509957452
 21
140.9525246916006
 31
0.0
  0
LINE
  5
CC92
330
B28C
100
AcDbEntity
  8
30
  6
Continuous
 62
     0
370
    -2
100
AcDbLine
 10
-122.9999999999989
 20
-0.0474753083990605
 30
0.0
 11
-162.1993509957453
 21
-0.0474753083990494
 31
0.0
  0
LINE
  5
CC93
330
B28C
100
AcDbEntity
  8
30
  6
Continuous
 62
     0
370
    -2
100
AcDbLine
 10
-161.6993509957449
 20
138.9525246916005
 30
0.0
 11
-161.6993509957453
 21
1.95252469160095
 31
0.0
  0
INSERT
  5
CC94
330
B28C
100
AcDbEntity
  8
30
  6
Continuous
 62
     0
370
    -2
100
AcDbBlockReference
  2
_OPEN
 10
-161.6993509957449
 20
140.9525246916006
 30
0.0
 41
2.0
 42
2.0
 43
2.0
 50
90.0
  0
INSERT
  5
CC95
330
B28C
100
AcDbEntity
  8
30
  6
Continuous
 62
     0
370
    -2
100
AcDbBlockReference
  2
_OPEN
 10
-161.6993509957453
 20
-0.0474753083990495
 30
0.0
 41
2.0
 42
2.0
 43
2.0
 50
270.0
  0
MTEXT
  5
CC96
330
B28C
100
AcDbEntity
  8
30
  6
Continuous
 62
     0
100
AcDbMText
 10
-167.6993509957453
 20
70.4525246916008
 30
0.0
 40
6.0
 41
0.0
 71
     5
 72
     1
  1
\A1; 141 
 11
0.0000000000000001
 21
1.0
 31
0.0
 73
     1
 44
1.0
  0
POINT
  5
CC97
330
B28C
100
AcDbEntity
  8
DEFPOINTS
  6
Continuous
 62
     0
100
AcDbPoint
 10
-109.9999999999992
 20
140.9525246916006
 30
0.0
  0
POINT
  5
CC98
330
B28C
100
AcDbEntity
  8
DEFPOINTS
  6
Continuous
 62
     0
100
AcDbPoint
 10
-119.999999999999
 20
-0.0474753083990613
 30
0.0
  0
POINT
  5
CC99
330
B28C
100
AcDbEntity
  8
DEFPOINTS
  6
Continuous
 62
     0
100
AcDbPoint
 10
-161.6993509957453
 20
-0.0474753083990495
 30
0.0
  0
ENDBLK
  5
B297
330
B28C
100
AcDbEntity
  8
0
100
AcDbBlockEnd
  0
BLOCK
  5
B2A2
330
B298
100
AcDbEntity
  8
0
100
AcDbBlockBegin
  2
*D21
 70
     1
 10
0.0
 20
0.0
 30
0.0
  3
*D21
  1

  0
LINE
  5
CC26
330
B298
100
AcDbEntity
  8
30
  6
Continuous
 62
     0
370
    -2
100
AcDbLine
 10
-122.9999999999989
 20
-0.0474753083990605
 30
0.0
 11
-162.1993509957452
 21
-0.0474753083990494
 31
0.0
  0
LINE
  5
CC27
330
B298
100
AcDbEntity
  8
30
  6
Continuous
 62
     0
370
    -2
100
AcDbLine
 10
-112.9999999999993
 20
-132.0474753083987
 30
0.0
 11
-162.1993509957453
 21
-132.0474753083987
 31
0.0
  0
LINE
  5
CC28
330
B298
100
AcDbEntity
  8
30
  6
Continuous
 62
     0
370
    -2
100
AcDbLine
 10
-161.6993509957449
 20
-2.047475308399048
 30
0.0
 11
-161.6993509957453
 21
-130.0474753083987
 31
0.0
  0
INSERT
  5
CC29
330
B298
100
AcDbEntity
  8
30
  6
Continuous
 62
     0
370
    -2
100
AcDbBlockReference
  2
_OPEN
 10
-161.6993509957449
 20
-0.0474753083990495
 30
0.0
 41
2.0
 42
2.0
 43
2.0
 50
90.0
  0
INSERT
  5
CC2A
330
B298
100
AcDbEntity
  8
30
  6
Continuous
 62
     0
370
    -2
100
AcDbBlockReference
  2
_OPEN
 10
-161.6993509957453
 20
-132.0474753083987
 30
0.0
 41
2.0
 42
2.0
 43
2.0
 50
270.0
  0
MTEXT
  5
CC2B
330
B298
100
AcDbEntity
  8
30
  6
Continuous
 62
     0
100
AcDbMText
 10
-167.699350995745
 20
-66.0474753083989
 30
0.0
 40
6.0
 41
0.0
 71
     5
 72
     1
  1
\A1; 132 
 11
0.0000000000000001
 21
1.0
 31
0.0
 73
     1
 44
1.0
  0
POINT
  5
CC2C
330
B298
100
AcDbEntity
  8
DEFPOINTS
  6
Continuous
 62
     0
100
AcDbPoint
 10
-119.999999999999
 20
-0.0474753083990613
 30
0.0
  0
POINT
  5
CC2D
330
B298
100
AcDbEntity
  8
DEFPOINTS
  6
Continuous
 62
     0
100
AcDbPoint
 10
-109.9999999999992
 20
-132.0474753083987
 30
0.0
  0
POINT
  5
CC2E
330
B298
100
AcDbEntity
  8
DEFPOINTS
  6
Continuous
 62
     0
100
AcDbPoint
 10
-161.6993509957453
 20
-132.0474753083987
 30
0.0
  0
ENDBLK
  5
B2A3
330
B298
100
AcDbEntity
  8
0
100
AcDbBlockEnd
  0
BLOCK
  5
B2AE
330
B2A4
100
AcDbEntity
  8
0
100
AcDbBlockBegin
  2
*D22
 70
     1
 10
0.0
 20
0.0
 30
0.0
  3
*D22
  1

  0
LINE
  5
CC88
330
B2A4
100
AcDbEntity
  8
30
  6
Continuous
 62
     0
370
    -2
100
AcDbLine
 10
-112.9999999999993
 20
140.9525246916006
 30
0.0
 11
-178.6134758423905
 21
140.9525246916006
 31
0.0
  0
LINE
  5
CC89
330
B2A4
100
AcDbEntity
  8
30
  6
Continuous
 62
     0
370
    -2
100
AcDbLine
 10
-97.99999999999933
 20
220.9525246916004
 30
0.0
 11
-178.6134758423905
 21
220.9525246916004
 31
0.0
  0
LINE
  5
CC8A
330
B2A4
100
AcDbEntity
  8
30
  6
Continuous
 62
     0
370
    -2
100
AcDbLine
 10
-178.1134758423905
 20
142.9525246916005
 30
0.0
 11
-178.1134758423905
 21
218.9525246916004
 31
0.0
  0
INSERT
  5
CC8B
330
B2A4
100
AcDbEntity
  8
30
  6
Continuous
 62
     0
370
    -2
100
AcDbBlockReference
  2
_OPEN
 10
-178.1134758423905
 20
140.9525246916006
 30
0.0
 41
2.0
 42
2.0
 43
2.0
 50
270.0
  0
INSERT
  5
CC8C
330
B2A4
100
AcDbEntity
  8
30
  6
Continuous
 62
     0
370
    -2
100
AcDbBlockReference
  2
_OPEN
 10
-178.1134758423905
 20
220.9525246916004
 30
0.0
 41
2.0
 42
2.0
 43
2.0
 50
90.0
  0
MTEXT
  5
CC8D
330
B2A4
100
AcDbEntity
  8
30
  6
Continuous
 62
     0
100
AcDbMText
 10
-184.1134758423905
 20
180.9525246916004
 30
0.0
 40
6.0
 41
0.0
 71
     5
 72
     1
  1
\A1; 80 
 11
0.0000000000000001
 21
1.0
 31
0.0
 73
     1
 44
1.0
  0
POINT
  5
CC8E
330
B2A4
100
AcDbEntity
  8
DEFPOINTS
  6
Continuous
 62
     0
100
AcDbPoint
 10
-109.9999999999992
 20
140.9525246916006
 30
0.0
  0
POINT
  5
CC8F
330
B2A4
100
AcDbEntity
  8
DEFPOINTS
  6
Continuous
 62
     0
100
AcDbPoint
 10
-94.99999999999932
 20
220.9525246916004
 30
0.0
  0
POINT
  5
CC90
330
B2A4
100
AcDbEntity
  8
DEFPOINTS
  6
Continuous
 62
     0
100
AcDbPoint
 10
-178.1134758423905
 20
220.9525246916004
 30
0.0
  0
ENDBLK
  5
B2AF
330
B2A4
100
AcDbEntity
  8
0
100
AcDbBlockEnd
  0
BLOCK
  5
B681
330
B677
100
AcDbEntity
  8
0
100
AcDbBlockBegin
  2
*D23
 70
     1
 10
0.0
 20
0.0
 30
0.0
  3
*D23
  1

  0
LINE
  5
CCEA
330
B677
100
AcDbEntity
  8
30
  6
Continuous
 62
     0
370
    -2
100
AcDbLine
 10
-69.99999999999954
 20
377.3526745713752
 30
0.0
 11
-69.99999999999954
 21
429.0085085369581
 31
0.0
  0
LINE
  5
CCEB
330
B677
100
AcDbEntity
  8
30
  6
Continuous
 62
     0
370
    -2
100
AcDbLine
 10
0.0000000000002276
 20
377.3526745713752
 30
0.0
 11
0.0000000000002307
 21
429.0085085369581
 31
0.0
  0
LINE
  5
CCEC
330
B677
100
AcDbEntity
  8
30
  6
Continuous
 62
     0
370
    -2
100
AcDbLine
 10
-67.99999999999954
 20
428.5085085369582
 30
0.0
 11
-1.999999999999769
 21
428.5085085369582
 31
0.0
  0
INSERT
  5
CCED
330
B677
100
AcDbEntity
  8
30
  6
Continuous
 62
     0
370
    -2
100
AcDbBlockReference
  2
_OPEN
 10
-69.99999999999954
 20
428.5085085369582
 30
0.0
 41
2.0
 42
2.0
 43
2.0
 50
180.0
  0
INSERT
  5
CCEE
330
B677
100
AcDbEntity
  8
30
  6
Continuous
 62
     0
370
    -2
100
AcDbBlockReference
  2
_OPEN
 10
0.0000000000002307
 20
428.5085085369582
 30
0.0
 41
2.0
 42
2.0
 43
2.0
  0
MTEXT
  5
CCEF
330
B677
100
AcDbEntity
  8
30
  6
Continuous
 62
     0
100
AcDbMText
 10
-34.99999999999966
 20
434.5085085369581
 30
0.0
 40
6.0
 41
0.0
 71
     5
 72
     1
  1
\A1;70
 73
     1
 44
1.0
  0
POINT
  5
CCF0
330
B677
100
AcDbEntity
  8
DEFPOINTS
  6
Continuous
 62
     0
100
AcDbPoint
 10
-69.99999999999954
 20
374.3526745713753
 30
0.0
  0
POINT
  5
CCF1
330
B677
100
AcDbEntity
  8
DEFPOINTS
  6
Continuous
 62
     0
100
AcDbPoint
 10
0.0000000000002274
 20
374.3526745713753
 30
0.0
  0
POINT
  5
CCF2
330
B677
100
AcDbEntity
  8
DEFPOINTS
  6
Continuous
 62
     0
100
AcDbPoint
 10
0.0000000000002307
 20
428.5085085369582
 30
0.0
  0
ENDBLK
  5
B682
330
B677
100
AcDbEntity
  8
0
100
AcDbBlockEnd
  0
BLOCK
  5
B68D
330
B683
100
AcDbEntity
  8
0
100
AcDbBlockBegin
  2
*D24
 70
     1
 10
0.0
 20
0.0
 30
0.0
  3
*D24
  1

  0
LINE
  5
CCE1
330
B683
100
AcDbEntity
  8
30
  6
Continuous
 62
     0
370
    -2
100
AcDbLine
 10
-105.0
 20
411.3526745713753
 30
0.0
 11
-105.0
 21
429.0085085369581
 31
0.0
  0
LINE
  5
CCE2
330
B683
100
AcDbEntity
  8
30
  6
Continuous
 62
     0
370
    -2
100
AcDbLine
 10
-69.99999999999954
 20
377.3526745713752
 30
0.0
 11
-69.99999999999954
 21
429.0085085369581
 31
0.0
  0
LINE
  5
CCE3
330
B683
100
AcDbEntity
  8
30
  6
Continuous
 62
     0
370
    -2
100
AcDbLine
 10
-103.0
 20
428.5085085369582
 30
0.0
 11
-71.99999999999954
 21
428.5085085369582
 31
0.0
  0
INSERT
  5
CCE4
330
B683
100
AcDbEntity
  8
30
  6
Continuous
 62
     0
370
    -2
100
AcDbBlockReference
  2
_OPEN
 10
-105.0
 20
428.5085085369582
 30
0.0
 41
2.0
 42
2.0
 43
2.0
 50
180.0
  0
INSERT
  5
CCE5
330
B683
100
AcDbEntity
  8
30
  6
Continuous
 62
     0
370
    -2
100
AcDbBlockReference
  2
_OPEN
 10
-69.99999999999954
 20
428.5085085369582
 30
0.0
 41
2.0
 42
2.0
 43
2.0
  0
MTEXT
  5
CCE6
330
B683
100
AcDbEntity
  8
30
  6
Continuous
 62
     0
100
AcDbMText
 10
-87.49999999999976
 20
434.5085085369581
 30
0.0
 40
6.0
 41
0.0
 71
     5
 72
     1
  1
\A1;35
 73
     1
 44
1.0
  0
POINT
  5
CCE7
330
B683
100
AcDbEntity
  8
DEFPOINTS
  6
Continuous
 62
     0
100
AcDbPoint
 10
-105.0
 20
408.3526745713752
 30
0.0
  0
POINT
  5
CCE8
330
B683
100
AcDbEntity
  8
DEFPOINTS
  6
Continuous
 62
     0
100
AcDbPoint
 10
-69.99999999999954
 20
374.3526745713753
 30
0.0
  0
POINT
  5
CCE9
330
B683
100
AcDbEntity
  8
DEFPOINTS
  6
Continuous
 62
     0
100
AcDbPoint
 10
-69.99999999999954
 20
428.5085085369582
 30
0.0
  0
ENDBLK
  5
B68E
330
B683
100
AcDbEntity
  8
0
100
AcDbBlockEnd
  0
BLOCK
  5
B699
330
B68F
100
AcDbEntity
  8
0
100
AcDbBlockBegin
  2
*D25
 70
     1
 10
0.0
 20
0.0
 30
0.0
  3
*D25
  1

  0
LINE
  5
CCD8
330
B68F
100
AcDbEntity
  8
30
  6
Continuous
 62
     0
370
    -2
100
AcDbLine
 10
0.0000000000002276
 20
377.3526745713752
 30
0.0
 11
0.0000000000002307
 21
429.0085085369581
 31
0.0
  0
LINE
  5
CCD9
330
B68F
100
AcDbEntity
  8
30
  6
Continuous
 62
     0
370
    -2
100
AcDbLine
 10
70.0
 20
377.3526745713752
 30
0.0
 11
70.0
 21
429.0085085369581
 31
0.0
  0
LINE
  5
CCDA
330
B68F
100
AcDbEntity
  8
30
  6
Continuous
 62
     0
370
    -2
100
AcDbLine
 10
2.00000000000023
 20
428.5085085369582
 30
0.0
 11
68.0
 21
428.5085085369582
 31
0.0
  0
INSERT
  5
CCDB
330
B68F
100
AcDbEntity
  8
30
  6
Continuous
 62
     0
370
    -2
100
AcDbBlockReference
  2
_OPEN
 10
0.0000000000002307
 20
428.5085085369582
 30
0.0
 41
2.0
 42
2.0
 43
2.0
 50
180.0
  0
INSERT
  5
CCDC
330
B68F
100
AcDbEntity
  8
30
  6
Continuous
 62
     0
370
    -2
100
AcDbBlockReference
  2
_OPEN
 10
70.0
 20
428.5085085369582
 30
0.0
 41
2.0
 42
2.0
 43
2.0
  0
MTEXT
  5
CCDD
330
B68F
100
AcDbEntity
  8
30
  6
Continuous
 62
     0
100
AcDbMText
 10
35.0000000000001
 20
434.5085085369581
 30
0.0
 40
6.0
 41
0.0
 71
     5
 72
     1
  1
\A1;70
 73
     1
 44
1.0
  0
POINT
  5
CCDE
330
B68F
100
AcDbEntity
  8
DEFPOINTS
  6
Continuous
 62
     0
100
AcDbPoint
 10
0.0000000000002274
 20
374.3526745713753
 30
0.0
  0
POINT
  5
CCDF
330
B68F
100
AcDbEntity
  8
DEFPOINTS
  6
Continuous
 62
     0
100
AcDbPoint
 10
70.0
 20
374.3526745713753
 30
0.0
  0
POINT
  5
CCE0
330
B68F
100
AcDbEntity
  8
DEFPOINTS
  6
Continuous
 62
     0
100
AcDbPoint
 10
70.0
 20
428.5085085369582
 30
0.0
  0
ENDBLK
  5
B69A
330
B68F
100
AcDbEntity
  8
0
100
AcDbBlockEnd
  0
BLOCK
  5
B6B1
330
B6A7
100
AcDbEntity
  8
0
100
AcDbBlockBegin
  2
*D26
 70
     1
 10
0.0
 20
0.0
 30
0.0
  3
*D26
  1

  0
LINE
  5
CBDC
330
B6A7
100
AcDbEntity
  8
30
  6
Continuous
 62
     0
370
    -2
100
AcDbLine
 10
70.0
 20
377.3526745713752
 30
0.0
 11
70.0
 21
429.0085085369581
 31
0.0
  0
LINE
  5
CBDD
330
B6A7
100
AcDbEntity
  8
30
  6
Continuous
 62
     0
370
    -2
100
AcDbLine
 10
174.9935351126155
 20
411.3526745713751
 30
0.0
 11
174.9935351126155
 21
429.0085085369581
 31
0.0
  0
LINE
  5
CBDE
330
B6A7
100
AcDbEntity
  8
30
  6
Continuous
 62
     0
370
    -2
100
AcDbLine
 10
72.0
 20
428.5085085369582
 30
0.0
 11
172.9935351126155
 21
428.5085085369582
 31
0.0
  0
INSERT
  5
CBDF
330
B6A7
100
AcDbEntity
  8
30
  6
Continuous
 62
     0
370
    -2
100
AcDbBlockReference
  2
_OPEN
 10
70.0
 20
428.5085085369582
 30
0.0
 41
2.0
 42
2.0
 43
2.0
 50
180.0
  0
INSERT
  5
CBE0
330
B6A7
100
AcDbEntity
  8
30
  6
Continuous
 62
     0
370
    -2
100
AcDbBlockReference
  2
_OPEN
 10
174.9935351126155
 20
428.5085085369582
 30
0.0
 41
2.0
 42
2.0
 43
2.0
  0
MTEXT
  5
CBE1
330
B6A7
100
AcDbEntity
  8
30
  6
Continuous
 62
     0
100
AcDbMText
 10
122.4967675563076
 20
434.5085085369581
 30
0.0
 40
6.0
 41
0.0
 71
     5
 72
     1
  1
\A1;105
 73
     1
 44
1.0
  0
POINT
  5
CBE2
330
B6A7
100
AcDbEntity
  8
DEFPOINTS
  6
Continuous
 62
     0
100
AcDbPoint
 10
70.0
 20
374.3526745713753
 30
0.0
  0
POINT
  5
CBE3
330
B6A7
100
AcDbEntity
  8
DEFPOINTS
  6
Continuous
 62
     0
100
AcDbPoint
 10
174.9935351126155
 20
408.3526745713751
 30
0.0
  0
POINT
  5
CBE4
330
B6A7
100
AcDbEntity
  8
DEFPOINTS
  6
Continuous
 62
     0
100
AcDbPoint
 10
174.9935351126155
 20
428.5085085369582
 30
0.0
  0
ENDBLK
  5
B6B2
330
B6A7
100
AcDbEntity
  8
0
100
AcDbBlockEnd
  0
BLOCK
  5
B6BD
330
B6B3
100
AcDbEntity
  8
0
100
AcDbBlockBegin
  2
*D27
 70
     1
 10
0.0
 20
0.0
 30
0.0
  3
*D27
  1

  0
LINE
  5
D4B9
330
B6B3
100
AcDbEntity
  8
30
  6
Continuous
 62
     0
370
    -2
100
AcDbLine
 10
180.7872924674434
 20
408.3526745713751
 30
0.0
 11
212.6608617843235
 21
408.3526745713751
 31
0.0
  0
LINE
  5
D4BA
330
B6B3
100
AcDbEntity
  8
30
  6
Continuous
 62
     0
370
    -2
100
AcDbLine
 10
165.7872924674434
 20
374.3526745713753
 30
0.0
 11
212.6608617843235
 21
374.3526745713753
 31
0.0
  0
LINE
  5
D4BB
330
B6B3
100
AcDbEntity
  8
30
  6
Continuous
 62
     0
370
    -2
100
AcDbLine
 10
212.1608617843235
 20
406.3526745713751
 30
0.0
 11
212.1608617843235
 21
376.3526745713753
 31
0.0
  0
MTEXT
  5
D4BC
330
B6B3
100
AcDbEntity
  8
30
  6
Continuous
 62
     0
100
AcDbMText
 10
223.1719838526486
 20
387.9328973837908
 30
0.0
 40
6.0
 41
0.0
 71
     5
 72
     1
  1
\A1;ON SIDE 32\POFF SIDE 37
 11
0.0000000000000001
 21
1.0
 31
0.0
 73
     1
 44
1.0
  0
INSERT
  5
D4BD
330
B6B3
100
AcDbEntity
  8
30
  6
Continuous
 62
     0
370
    -2
100
AcDbBlockReference
  2
_OPEN
 10
212.1608617843235
 20
408.3526745713751
 30
0.0
 41
2.0
 42
2.0
 43
2.0
 50
90.0
  0
INSERT
  5
D4BE
330
B6B3
100
AcDbEntity
  8
30
  6
Continuous
 62
     0
370
    -2
100
AcDbBlockReference
  2
_OPEN
 10
212.1608617843235
 20
374.3526745713753
 30
0.0
 41
2.0
 42
2.0
 43
2.0
 50
270.0
  0
POINT
  5
D4BF
330
B6B3
100
AcDbEntity
  8
DEFPOINTS
  6
Continuous
 62
     0
100
AcDbPoint
 10
177.7872924674434
 20
408.3526745713751
 30
0.0
  0
POINT
  5
D4C0
330
B6B3
100
AcDbEntity
  8
DEFPOINTS
  6
Continuous
 62
     0
100
AcDbPoint
 10
162.7872924674434
 20
374.3526745713753
 30
0.0
  0
POINT
  5
D4C1
330
B6B3
100
AcDbEntity
  8
DEFPOINTS
  6
Continuous
 62
     0
100
AcDbPoint
 10
212.1608617843235
 20
374.3526745713753
 30
0.0
  0
ENDBLK
  5
B6BE
330
B6B3
100
AcDbEntity
  8
0
100
AcDbBlockEnd
  0
BLOCK
  5
B7A2
330
B798
100
AcDbEntity
  8
0
100
AcDbBlockBegin
  2
*D28
 70
     1
 10
0.0
 20
0.0
 30
0.0
  3
*D28
  1

  0
LINE
  5
CD28
330
B798
100
AcDbEntity
  8
30
  6
Continuous
 62
     0
370
    -2
100
AcDbLine
 10
162.9935351126155
 20
374.3526745713753
 30
0.0
 11
197.4636107915585
 21
374.3526745713753
 31
0.0
  0
LINE
  5
CD29
330
B798
100
AcDbEntity
  8
30
  6
Continuous
 62
     0
370
    -2
100
AcDbLine
 10
162.9935351126155
 20
360.3526745713752
 30
0.0
 11
197.4636107915585
 21
360.3526745713752
 31
0.0
  0
LINE
  5
CD2A
330
B798
100
AcDbEntity
  8
30
  6
Continuous
 62
     0
370
    -2
100
AcDbLine
 10
196.9636107915585
 20
372.3526745713753
 30
0.0
 11
196.9636107915585
 21
362.3526745713752
 31
0.0
  0
INSERT
  5
CD2B
330
B798
100
AcDbEntity
  8
30
  6
Continuous
 62
     0
370
    -2
100
AcDbBlockReference
  2
_OPEN
 10
196.9636107915585
 20
374.3526745713753
 30
0.0
 41
2.0
 42
2.0
 43
2.0
 50
90.0
  0
INSERT
  5
CD2C
330
B798
100
AcDbEntity
  8
30
  6
Continuous
 62
     0
370
    -2
100
AcDbBlockReference
  2
_OPEN
 10
196.9636107915585
 20
360.3526745713752
 30
0.0
 41
2.0
 42
2.0
 43
2.0
 50
270.0
  0
MTEXT
  5
CD2D
330
B798
100
AcDbEntity
  8
30
  6
Continuous
 62
     0
100
AcDbMText
 10
190.9636107915584
 20
367.5620434037105
 30
0.0
 40
6.0
 41
0.0
 71
     5
 72
     1
  1
\A1;14
 11
0.0000000000000001
 21
1.0
 31
0.0
 73
     1
 44
1.0
  0
POINT
  5
CD2E
330
B798
100
AcDbEntity
  8
DEFPOINTS
  6
Continuous
 62
     0
100
AcDbPoint
 10
159.9935351126155
 20
374.3526745713753
 30
0.0
  0
POINT
  5
CD2F
330
B798
100
AcDbEntity
  8
DEFPOINTS
  6
Continuous
 62
     0
100
AcDbPoint
 10
159.9935351126155
 20
360.3526745713752
 30
0.0
  0
POINT
  5
CD30
330
B798
100
AcDbEntity
  8
DEFPOINTS
  6
Continuous
 62
     0
100
AcDbPoint
 10
196.9636107915585
 20
360.3526745713752
 30
0.0
  0
ENDBLK
  5
B7A3
330
B798
100
AcDbEntity
  8
0
100
AcDbBlockEnd
  0
BLOCK
  5
BA01
330
B9F7
100
AcDbEntity
  8
0
100
AcDbBlockBegin
  2
*D29
 70
     1
 10
0.0
 20
0.0
 30
0.0
  3
*D29
  1

  0
LINE
  5
CC38
330
B9F7
100
AcDbEntity
  8
30
  6
Continuous
 62
     0
370
    -2
100
AcDbLine
 10
-115.3288805278388
 20
-499.5708385812683
 30
0.0
 11
-126.9827805278387
 21
-499.5708385812683
 31
0.0
  0
LINE
  5
CC39
330
B9F7
100
AcDbEntity
  8
30
  6
Continuous
 62
     0
370
    -2
100
AcDbLine
 10
-44.20000000000028
 20
-373.5708385812686
 30
0.0
 11
-126.9827805278387
 21
-373.5708385812686
 31
0.0
  0
LINE
  5
CC3A
330
B9F7
100
AcDbEntity
  8
30
  6
Continuous
 62
     0
370
    -2
100
AcDbLine
 10
-126.4827805278387
 20
-497.5708385812684
 30
0.0
 11
-126.4827805278387
 21
-375.5708385812686
 31
0.0
  0
INSERT
  5
CC3B
330
B9F7
100
AcDbEntity
  8
30
  6
Continuous
 62
     0
370
    -2
100
AcDbBlockReference
  2
_OPEN
 10
-126.4827805278387
 20
-499.5708385812683
 30
0.0
 41
2.0
 42
2.0
 43
2.0
 50
270.0
  0
INSERT
  5
CC3C
330
B9F7
100
AcDbEntity
  8
30
  6
Continuous
 62
     0
370
    -2
100
AcDbBlockReference
  2
_OPEN
 10
-126.4827805278387
 20
-373.5708385812686
 30
0.0
 41
2.0
 42
2.0
 43
2.0
 50
90.0
  0
MTEXT
  5
CC3D
330
B9F7
100
AcDbEntity
  8
30
  6
Continuous
 62
     0
100
AcDbMText
 10
-132.4827805278383
 20
-436.5708385812683
 30
0.0
 40
6.0
 41
0.0
 71
     5
 72
     1
  1
\A1; 126 
 11
0.0000000000000001
 21
1.0
 31
0.0
 73
     1
 44
1.0
  0
POINT
  5
CC3E
330
B9F7
100
AcDbEntity
  8
DEFPOINTS
  6
Continuous
 62
     0
100
AcDbPoint
 10
-112.3288805278388
 20
-499.5708385812683
 30
0.0
  0
POINT
  5
CC3F
330
B9F7
100
AcDbEntity
  8
DEFPOINTS
  6
Continuous
 62
     0
100
AcDbPoint
 10
-41.20000000000027
 20
-373.5708385812686
 30
0.0
  0
POINT
  5
CC40
330
B9F7
100
AcDbEntity
  8
DEFPOINTS
  6
Continuous
 62
     0
100
AcDbPoint
 10
-126.4827805278387
 20
-373.5708385812686
 30
0.0
  0
ENDBLK
  5
BA02
330
B9F7
100
AcDbEntity
  8
0
100
AcDbBlockEnd
  0
BLOCK
  5
BA0D
330
BA03
100
AcDbEntity
  8
0
100
AcDbBlockBegin
  2
*D30
 70
     1
 10
0.0
 20
0.0
 30
0.0
  3
*D30
  1

  0
LINE
  5
CC41
330
BA03
100
AcDbEntity
  8
30
  6
Continuous
 62
     0
370
    -2
100
AcDbLine
 10
-44.20000000000028
 20
-616.5708385812681
 30
0.0
 11
-126.9827805278387
 21
-616.5708385812681
 31
0.0
  0
LINE
  5
CC42
330
BA03
100
AcDbEntity
  8
30
  6
Continuous
 62
     0
370
    -2
100
AcDbLine
 10
-117.7999999999997
 20
-499.5708385812683
 30
0.0
 11
-126.9827805278387
 21
-499.5708385812683
 31
0.0
  0
LINE
  5
CC43
330
BA03
100
AcDbEntity
  8
30
  6
Continuous
 62
     0
370
    -2
100
AcDbLine
 10
-126.4827805278387
 20
-614.5708385812683
 30
0.0
 11
-126.4827805278387
 21
-501.5708385812684
 31
0.0
  0
INSERT
  5
CC44
330
BA03
100
AcDbEntity
  8
30
  6
Continuous
 62
     0
370
    -2
100
AcDbBlockReference
  2
_OPEN
 10
-126.4827805278387
 20
-616.5708385812681
 30
0.0
 41
2.0
 42
2.0
 43
2.0
 50
270.0
  0
INSERT
  5
CC45
330
BA03
100
AcDbEntity
  8
30
  6
Continuous
 62
     0
370
    -2
100
AcDbBlockReference
  2
_OPEN
 10
-126.4827805278387
 20
-499.5708385812683
 30
0.0
 41
2.0
 42
2.0
 43
2.0
 50
90.0
  0
MTEXT
  5
CC46
330
BA03
100
AcDbEntity
  8
30
  6
Continuous
 62
     0
100
AcDbMText
 10
-132.4827805278383
 20
-558.0708385812681
 30
0.0
 40
6.0
 41
0.0
 71
     5
 72
     1
  1
\A1; 117 
 11
0.0000000000000001
 21
1.0
 31
0.0
 73
     1
 44
1.0
  0
POINT
  5
CC47
330
BA03
100
AcDbEntity
  8
DEFPOINTS
  6
Continuous
 62
     0
100
AcDbPoint
 10
-41.20000000000027
 20
-616.5708385812681
 30
0.0
  0
POINT
  5
CC48
330
BA03
100
AcDbEntity
  8
DEFPOINTS
  6
Continuous
 62
     0
100
AcDbPoint
 10
-114.7999999999997
 20
-499.5708385812683
 30
0.0
  0
POINT
  5
CC49
330
BA03
100
AcDbEntity
  8
DEFPOINTS
  6
Continuous
 62
     0
100
AcDbPoint
 10
-126.4827805278387
 20
-499.5708385812683
 30
0.0
  0
ENDBLK
  5
BA0E
330
BA03
100
AcDbEntity
  8
0
100
AcDbBlockEnd
  0
BLOCK
  5
CB0B
330
CB01
100
AcDbEntity
  8
0
100
AcDbBlockBegin
  2
*D31
 70
     1
 10
0.0
 20
0.0
 30
0.0
  3
*D31
  1

  0
LINE
  5
CB02
330
CB01
100
AcDbEntity
  8
30
  6
Continuous
 62
     0
370
    -2
100
AcDbLine
 10
394.2000000000001
 20
-52.99999999999979
 30
0.0
 11
394.2000000000001
 21
-261.9865723997425
 31
0.0
  0
LINE
  5
CB03
330
CB01
100
AcDbEntity
  8
30
  6
Continuous
 62
     0
370
    -2
100
AcDbLine
 10
497.1999999999998
 20
-139.9999999999996
 30
0.0
 11
497.1999999999998
 21
-261.9865723997425
 31
0.0
  0
LINE
  5
CB04
330
CB01
100
AcDbEntity
  8
30
  6
Continuous
 62
     0
370
    -2
100
AcDbLine
 10
396.2000000000001
 20
-261.4865723997425
 30
0.0
 11
495.1999999999999
 21
-261.4865723997425
 31
0.0
  0
INSERT
  5
CB05
330
CB01
100
AcDbEntity
  8
30
  6
Continuous
 62
     0
370
    -2
100
AcDbBlockReference
  2
_OPEN
 10
394.2000000000001
 20
-261.4865723997425
 30
0.0
 41
2.0
 42
2.0
 43
2.0
 50
180.0
  0
INSERT
  5
CB06
330
CB01
100
AcDbEntity
  8
30
  6
Continuous
 62
     0
370
    -2
100
AcDbBlockReference
  2
_OPEN
 10
497.1999999999998
 20
-261.4865723997425
 30
0.0
 41
2.0
 42
2.0
 43
2.0
  0
MTEXT
  5
CB07
330
CB01
100
AcDbEntity
  8
30
  6
Continuous
 62
     0
100
AcDbMText
 10
445.6999999999998
 20
-255.4865723997425
 30
0.0
 40
6.0
 41
0.0
 71
     5
 72
     1
  1
\A1; 103 
 73
     1
 44
1.0
  0
POINT
  5
CB08
330
CB01
100
AcDbEntity
  8
DEFPOINTS
  6
Continuous
 62
     0
100
AcDbPoint
 10
394.2000000000001
 20
-49.99999999999978
 30
0.0
  0
POINT
  5
CB09
330
CB01
100
AcDbEntity
  8
DEFPOINTS
  6
Continuous
 62
     0
100
AcDbPoint
 10
497.1999999999998
 20
-136.9999999999996
 30
0.0
  0
POINT
  5
CB0A
330
CB01
100
AcDbEntity
  8
DEFPOINTS
  6
Continuous
 62
     0
100
AcDbPoint
 10
497.1999999999998
 20
-261.4865723997425
 30
0.0
  0
ENDBLK
  5
CB0C
330
CB01
100
AcDbEntity
  8
0
100
AcDbBlockEnd
  0
BLOCK
  5
CB17
330
CB0D
100
AcDbEntity
  8
0
100
AcDbBlockBegin
  2
*D32
 70
     1
 10
0.0
 20
0.0
 30
0.0
  3
*D32
  1

  0
LINE
  5
CB0E
330
CB0D
100
AcDbEntity
  8
30
  6
Continuous
 62
     0
370
    -2
100
AcDbLine
 10
390.2
 20
-52.99999999999979
 30
0.0
 11
390.2
 21
-280.3206303741577
 31
0.0
  0
LINE
  5
CB0F
330
CB0D
100
AcDbEntity
  8
30
  6
Continuous
 62
     0
370
    -2
100
AcDbLine
 10
497.1999999999998
 20
-139.9999999999996
 30
0.0
 11
497.1999999999998
 21
-280.3206303741577
 31
0.0
  0
LINE
  5
CB10
330
CB0D
100
AcDbEntity
  8
30
  6
Continuous
 62
     0
370
    -2
100
AcDbLine
 10
392.2
 20
-279.8206303741577
 30
0.0
 11
495.1999999999999
 21
-279.8206303741577
 31
0.0
  0
INSERT
  5
CB11
330
CB0D
100
AcDbEntity
  8
30
  6
Continuous
 62
     0
370
    -2
100
AcDbBlockReference
  2
_OPEN
 10
390.2
 20
-279.8206303741577
 30
0.0
 41
2.0
 42
2.0
 43
2.0
 50
180.0
  0
INSERT
  5
CB12
330
CB0D
100
AcDbEntity
  8
30
  6
Continuous
 62
     0
370
    -2
100
AcDbBlockReference
  2
_OPEN
 10
497.1999999999998
 20
-279.8206303741577
 30
0.0
 41
2.0
 42
2.0
 43
2.0
  0
MTEXT
  5
CB13
330
CB0D
100
AcDbEntity
  8
30
  6
Continuous
 62
     0
100
AcDbMText
 10
443.6999999999998
 20
-273.8206303741577
 30
0.0
 40
6.0
 41
0.0
 71
     5
 72
     1
  1
\A1; 107 
 73
     1
 44
1.0
  0
POINT
  5
CB14
330
CB0D
100
AcDbEntity
  8
DEFPOINTS
  6
Continuous
 62
     0
100
AcDbPoint
 10
390.2
 20
-49.99999999999978
 30
0.0
  0
POINT
  5
CB15
330
CB0D
100
AcDbEntity
  8
DEFPOINTS
  6
Continuous
 62
     0
100
AcDbPoint
 10
497.1999999999998
 20
-136.9999999999996
 30
0.0
  0
POINT
  5
CB16
330
CB0D
100
AcDbEntity
  8
DEFPOINTS
  6
Continuous
 62
     0
100
AcDbPoint
 10
497.1999999999998
 20
-279.8206303741577
 30
0.0
  0
ENDBLK
  5
CB18
330
CB0D
100
AcDbEntity
  8
0
100
AcDbBlockEnd
  0
BLOCK
  5
CB23
330
CB19
100
AcDbEntity
  8
0
100
AcDbBlockBegin
  2
*D33
 70
     1
 10
0.0
 20
0.0
 30
0.0
  3
*D33
  1

  0
LINE
  5
CB1A
330
CB19
100
AcDbEntity
  8
30
  6
Continuous
 62
     0
370
    -2
100
AcDbLine
 10
369.7000000000001
 20
2.000000000000115
 30
0.0
 11
369.7000000000001
 21
-301.0509475116601
 31
0.0
  0
LINE
  5
CB1B
330
CB19
100
AcDbEntity
  8
30
  6
Continuous
 62
     0
370
    -2
100
AcDbLine
 10
497.1999999999998
 20
-3.499999999999976
 30
0.0
 11
497.1999999999998
 21
-301.0509475116601
 31
0.0
  0
LINE
  5
CB1C
330
CB19
100
AcDbEntity
  8
30
  6
Continuous
 62
     0
370
    -2
100
AcDbLine
 10
371.7000000000001
 20
-300.5509475116602
 30
0.0
 11
495.1999999999999
 21
-300.5509475116602
 31
0.0
  0
INSERT
  5
CB1D
330
CB19
100
AcDbEntity
  8
30
  6
Continuous
 62
     0
370
    -2
100
AcDbBlockReference
  2
_OPEN
 10
369.7000000000001
 20
-300.5509475116602
 30
0.0
 41
2.0
 42
2.0
 43
2.0
 50
180.0
  0
INSERT
  5
CB1E
330
CB19
100
AcDbEntity
  8
30
  6
Continuous
 62
     0
370
    -2
100
AcDbBlockReference
  2
_OPEN
 10
497.1999999999998
 20
-300.5509475116602
 30
0.0
 41
2.0
 42
2.0
 43
2.0
  0
MTEXT
  5
CB1F
330
CB19
100
AcDbEntity
  8
30
  6
Continuous
 62
     0
100
AcDbMText
 10
433.45
 20
-294.5509475116601
 30
0.0
 40
6.0
 41
0.0
 71
     5
 72
     1
  1
\A1; 127.5 
 73
     1
 44
1.0
  0
POINT
  5
CB20
330
CB19
100
AcDbEntity
  8
DEFPOINTS
  6
Continuous
 62
     0
100
AcDbPoint
 10
369.7000000000001
 20
5.000000000000117
 30
0.0
  0
POINT
  5
CB21
330
CB19
100
AcDbEntity
  8
DEFPOINTS
  6
Continuous
 62
     0
100
AcDbPoint
 10
497.1999999999998
 20
-0.4999999999999761
 30
0.0
  0
POINT
  5
CB22
330
CB19
100
AcDbEntity
  8
DEFPOINTS
  6
Continuous
 62
     0
100
AcDbPoint
 10
497.1999999999998
 20
-300.5509475116602
 30
0.0
  0
ENDBLK
  5
CB24
330
CB19
100
AcDbEntity
  8
0
100
AcDbBlockEnd
  0
BLOCK
  5
CB30
330
CB25
100
AcDbEntity
  8
0
100
AcDbBlockBegin
  2
*D34
 70
     1
 10
0.0
 20
0.0
 30
0.0
  3
*D34
  1

  0
LINE
  5
CB26
330
CB25
100
AcDbEntity
  8
30
  6
Continuous
 62
     0
370
    -2
100
AcDbLine
 10
386.2000000000001
 20
-3.499999999999976
 30
0.0
 11
386.2000000000001
 21
-280.3206303741577
 31
0.0
  0
LINE
  5
CB27
330
CB25
100
AcDbEntity
  8
30
  6
Continuous
 62
     0
370
    -2
100
AcDbLine
 10
390.2
 20
-52.99999999999979
 30
0.0
 11
390.2
 21
-280.3206303741577
 31
0.0
  0
LINE
  5
CB28
330
CB25
100
AcDbEntity
  8
30
  6
Continuous
 62
     0
370
    -2
100
AcDbLine
 10
384.2000000000001
 20
-279.8206303741577
 30
0.0
 11
382.2000000000001
 21
-279.8206303741577
 31
0.0
  0
LINE
  5
CB29
330
CB25
100
AcDbEntity
  8
30
  6
Continuous
 62
     0
370
    -2
100
AcDbLine
 10
392.2
 20
-279.8206303741577
 30
0.0
 11
407.8000000000001
 21
-279.8206303741577
 31
0.0
  0
INSERT
  5
CB2A
330
CB25
100
AcDbEntity
  8
30
  6
Continuous
 62
     0
370
    -2
100
AcDbBlockReference
  2
_OPEN
 10
386.2000000000001
 20
-279.8206303741577
 30
0.0
 41
2.0
 42
2.0
 43
2.0
  0
INSERT
  5
CB2B
330
CB25
100
AcDbEntity
  8
30
  6
Continuous
 62
     0
370
    -2
100
AcDbBlockReference
  2
_OPEN
 10
390.2
 20
-279.8206303741577
 30
0.0
 41
2.0
 42
2.0
 43
2.0
 50
180.0
  0
MTEXT
  5
CB2C
330
CB25
100
AcDbEntity
  8
30
  6
Continuous
 62
     0
100
AcDbMText
 10
401.0
 20
-273.8206303741577
 30
0.0
 40
6.0
 41
0.0
 71
     5
 72
     1
  1
\A1; 4 
 73
     1
 44
1.0
  0
POINT
  5
CB2D
330
CB25
100
AcDbEntity
  8
DEFPOINTS
  6
Continuous
 62
     0
100
AcDbPoint
 10
386.2000000000001
 20
-0.4999999999999761
 30
0.0
  0
POINT
  5
CB2E
330
CB25
100
AcDbEntity
  8
DEFPOINTS
  6
Continuous
 62
     0
100
AcDbPoint
 10
390.2
 20
-49.99999999999978
 30
0.0
  0
POINT
  5
CB2F
330
CB25
100
AcDbEntity
  8
DEFPOINTS
  6
Continuous
 62
     0
100
AcDbPoint
 10
390.2
 20
-279.8206303741577
 30
0.0
  0
ENDBLK
  5
CB31
330
CB25
100
AcDbEntity
  8
0
100
AcDbBlockEnd
  0
BLOCK
  5
CB3C
330
CB32
100
AcDbEntity
  8
0
100
AcDbBlockBegin
  2
*D35
 70
     1
 10
0.0
 20
0.0
 30
0.0
  3
*D35
  1

  0
LINE
  5
CB33
330
CB32
100
AcDbEntity
  8
30
  6
Continuous
 62
     0
370
    -2
100
AcDbLine
 10
469.2
 20
-100.7499999999996
 30
0.0
 11
469.2
 21
-71.59587499999974
 31
0.0
  0
LINE
  5
CB34
330
CB32
100
AcDbEntity
  8
30
  6
Continuous
 62
     0
370
    -2
100
AcDbLine
 10
497.1999999999998
 20
-75.34587499999971
 30
0.0
 11
497.1999999999998
 21
-71.59587499999974
 31
0.0
  0
LINE
  5
CB35
330
CB32
100
AcDbEntity
  8
30
  6
Continuous
 62
     0
370
    -2
100
AcDbLine
 10
471.1999999999998
 20
-72.09587499999973
 30
0.0
 11
495.1999999999999
 21
-72.09587499999973
 31
0.0
  0
INSERT
  5
CB36
330
CB32
100
AcDbEntity
  8
30
  6
Continuous
 62
     0
370
    -2
100
AcDbBlockReference
  2
_OPEN
 10
469.2
 20
-72.09587499999973
 30
0.0
 41
2.0
 42
2.0
 43
2.0
 50
180.0
  0
INSERT
  5
CB37
330
CB32
100
AcDbEntity
  8
30
  6
Continuous
 62
     0
370
    -2
100
AcDbBlockReference
  2
_OPEN
 10
497.1999999999998
 20
-72.09587499999973
 30
0.0
 41
2.0
 42
2.0
 43
2.0
  0
MTEXT
  5
CB38
330
CB32
100
AcDbEntity
  8
30
  6
Continuous
 62
     0
100
AcDbMText
 10
483.1999999999998
 20
-66.09587499999974
 30
0.0
 40
6.0
 41
0.0
 71
     5
 72
     1
  1
\A1; 28 
 73
     1
 44
1.0
  0
POINT
  5
CB39
330
CB32
100
AcDbEntity
  8
DEFPOINTS
  6
Continuous
 62
     0
100
AcDbPoint
 10
469.2
 20
-103.7499999999996
 30
0.0
  0
POINT
  5
CB3A
330
CB32
100
AcDbEntity
  8
DEFPOINTS
  6
Continuous
 62
     0
100
AcDbPoint
 10
497.1999999999998
 20
-78.34587499999971
 30
0.0
  0
POINT
  5
CB3B
330
CB32
100
AcDbEntity
  8
DEFPOINTS
  6
Continuous
 62
     0
100
AcDbPoint
 10
497.1999999999998
 20
-72.09587499999973
 30
0.0
  0
ENDBLK
  5
CB3D
330
CB32
100
AcDbEntity
  8
0
100
AcDbBlockEnd
  0
BLOCK
  5
CB48
330
CB3E
100
AcDbEntity
  8
0
100
AcDbBlockBegin
  2
*D36
 70
     1
 10
0.0
 20
0.0
 30
0.0
  3
*D36
  1

  0
LINE
  5
CB3F
330
CB3E
100
AcDbEntity
  8
30
  6
Continuous
 62
     0
370
    -2
100
AcDbLine
 10
510.2
 20
-104.9999999999996
 30
0.0
 11
510.2
 21
-71.59587499999974
 31
0.0
  0
LINE
  5
CB40
330
CB3E
100
AcDbEntity
  8
30
  6
Continuous
 62
     0
370
    -2
100
AcDbLine
 10
497.1999999999998
 20
-75.34587499999972
 30
0.0
 11
497.1999999999998
 21
-71.59587499999974
 31
0.0
  0
LINE
  5
CB41
330
CB3E
100
AcDbEntity
  8
30
  6
Continuous
 62
     0
370
    -2
100
AcDbLine
 10
508.1999999999998
 20
-72.09587499999973
 30
0.0
 11
499.1999999999999
 21
-72.09587499999973
 31
0.0
  0
INSERT
  5
CB42
330
CB3E
100
AcDbEntity
  8
30
  6
Continuous
 62
     0
370
    -2
100
AcDbBlockReference
  2
_OPEN
 10
510.2
 20
-72.09587499999973
 30
0.0
 41
2.0
 42
2.0
 43
2.0
  0
INSERT
  5
CB43
330
CB3E
100
AcDbEntity
  8
30
  6
Continuous
 62
     0
370
    -2
100
AcDbBlockReference
  2
_OPEN
 10
497.1999999999998
 20
-72.09587499999973
 30
0.0
 41
2.0
 42
2.0
 43
2.0
 50
180.0
  0
MTEXT
  5
CB44
330
CB3E
100
AcDbEntity
  8
30
  6
Continuous
 62
     0
100
AcDbMText
 10
503.6999999999999
 20
-66.09587499999974
 30
0.0
 40
6.0
 41
0.0
 71
     5
 72
     1
  1
\A1; 13 
 73
     1
 44
1.0
  0
POINT
  5
CB45
330
CB3E
100
AcDbEntity
  8
DEFPOINTS
  6
Continuous
 62
     0
100
AcDbPoint
 10
510.2
 20
-107.9999999999996
 30
0.0
  0
POINT
  5
CB46
330
CB3E
100
AcDbEntity
  8
DEFPOINTS
  6
Continuous
 62
     0
100
AcDbPoint
 10
497.1999999999998
 20
-78.34587499999972
 30
0.0
  0
POINT
  5
CB47
330
CB3E
100
AcDbEntity
  8
DEFPOINTS
  6
Continuous
 62
     0
100
AcDbPoint
 10
497.1999999999998
 20
-72.09587499999973
 30
0.0
  0
ENDBLK
  5
CB49
330
CB3E
100
AcDbEntity
  8
0
100
AcDbBlockEnd
  0
BLOCK
  5
CB54
330
CB4A
100
AcDbEntity
  8
0
100
AcDbBlockBegin
  2
*D37
 70
     1
 10
0.0
 20
0.0
 30
0.0
  3
*D37
  1

  0
LINE
  5
CB4B
330
CB4A
100
AcDbEntity
  8
30
  6
Continuous
 62
     0
370
    -2
100
AcDbLine
 10
352.2000000000005
 20
2.000000000000115
 30
0.0
 11
352.2000000000005
 21
-324.2514811106503
 31
0.0
  0
LINE
  5
CB4C
330
CB4A
100
AcDbEntity
  8
30
  6
Continuous
 62
     0
370
    -2
100
AcDbLine
 10
497.1999999999998
 20
-139.9999999999996
 30
0.0
 11
497.1999999999998
 21
-324.2514811106503
 31
0.0
  0
LINE
  5
CB4D
330
CB4A
100
AcDbEntity
  8
30
  6
Continuous
 62
     0
370
    -2
100
AcDbLine
 10
354.2000000000005
 20
-323.7514811106503
 30
0.0
 11
495.1999999999999
 21
-323.7514811106503
 31
0.0
  0
INSERT
  5
CB4E
330
CB4A
100
AcDbEntity
  8
30
  6
Continuous
 62
     0
370
    -2
100
AcDbBlockReference
  2
_OPEN
 10
352.2000000000005
 20
-323.7514811106503
 30
0.0
 41
2.0
 42
2.0
 43
2.0
 50
180.0
  0
INSERT
  5
CB4F
330
CB4A
100
AcDbEntity
  8
30
  6
Continuous
 62
     0
370
    -2
100
AcDbBlockReference
  2
_OPEN
 10
497.1999999999998
 20
-323.7514811106503
 30
0.0
 41
2.0
 42
2.0
 43
2.0
  0
MTEXT
  5
CB50
330
CB4A
100
AcDbEntity
  8
30
  6
Continuous
 62
     0
100
AcDbMText
 10
424.7000000000001
 20
-317.7514811106503
 30
0.0
 40
6.0
 41
0.0
 71
     5
 72
     1
  1
\A1; 145 
 73
     1
 44
1.0
  0
POINT
  5
CB51
330
CB4A
100
AcDbEntity
  8
DEFPOINTS
  6
Continuous
 62
     0
100
AcDbPoint
 10
352.2000000000005
 20
5.000000000000117
 30
0.0
  0
POINT
  5
CB52
330
CB4A
100
AcDbEntity
  8
DEFPOINTS
  6
Continuous
 62
     0
100
AcDbPoint
 10
497.1999999999998
 20
-136.9999999999996
 30
0.0
  0
POINT
  5
CB53
330
CB4A
100
AcDbEntity
  8
DEFPOINTS
  6
Continuous
 62
     0
100
AcDbPoint
 10
497.1999999999998
 20
-323.7514811106503
 30
0.0
  0
ENDBLK
  5
CB55
330
CB4A
100
AcDbEntity
  8
0
100
AcDbBlockEnd
  0
BLOCK
  5
CB60
330
CB56
100
AcDbEntity
  8
0
100
AcDbBlockBegin
  2
*D38
 70
     1
 10
0.0
 20
0.0
 30
0.0
  3
*D38
  1

  0
LINE
  5
CB57
330
CB56
100
AcDbEntity
  8
30
  6
Continuous
 62
     0
370
    -2
100
AcDbLine
 10
352.2000000000005
 20
2.000000000000115
 30
0.0
 11
352.2000000000005
 21
-324.5555363480506
 31
0.0
  0
LINE
  5
CB58
330
CB56
100
AcDbEntity
  8
30
  6
Continuous
 62
     0
370
    -2
100
AcDbLine
 10
271.6989300000004
 20
2.000000000000115
 30
0.0
 11
271.6989300000004
 21
-324.5555363480506
 31
0.0
  0
LINE
  5
CB59
330
CB56
100
AcDbEntity
  8
30
  6
Continuous
 62
     0
370
    -2
100
AcDbLine
 10
350.2000000000005
 20
-324.0555363480506
 30
0.0
 11
273.6989300000004
 21
-324.0555363480506
 31
0.0
  0
INSERT
  5
CB5A
330
CB56
100
AcDbEntity
  8
30
  6
Continuous
 62
     0
370
    -2
100
AcDbBlockReference
  2
_OPEN
 10
352.2000000000005
 20
-324.0555363480506
 30
0.0
 41
2.0
 42
2.0
 43
2.0
  0
INSERT
  5
CB5B
330
CB56
100
AcDbEntity
  8
30
  6
Continuous
 62
     0
370
    -2
100
AcDbBlockReference
  2
_OPEN
 10
271.6989300000004
 20
-324.0555363480506
 30
0.0
 41
2.0
 42
2.0
 43
2.0
 50
180.0
  0
MTEXT
  5
CB5C
330
CB56
100
AcDbEntity
  8
30
  6
Continuous
 62
     0
100
AcDbMText
 10
311.9494650000003
 20
-318.0555363480507
 30
0.0
 40
6.0
 41
0.0
 71
     5
 72
     1
  1
\A1; 80.5 
 73
     1
 44
1.0
  0
POINT
  5
CB5D
330
CB56
100
AcDbEntity
  8
DEFPOINTS
  6
Continuous
 62
     0
100
AcDbPoint
 10
352.2000000000005
 20
5.000000000000117
 30
0.0
  0
POINT
  5
CB5E
330
CB56
100
AcDbEntity
  8
DEFPOINTS
  6
Continuous
 62
     0
100
AcDbPoint
 10
271.6989300000004
 20
5.000000000000117
 30
0.0
  0
POINT
  5
CB5F
330
CB56
100
AcDbEntity
  8
DEFPOINTS
  6
Continuous
 62
     0
100
AcDbPoint
 10
271.6989300000004
 20
-324.0555363480506
 30
0.0
  0
ENDBLK
  5
CB61
330
CB56
100
AcDbEntity
  8
0
100
AcDbBlockEnd
  0
BLOCK
  5
CB6C
330
CB62
100
AcDbEntity
  8
0
100
AcDbBlockBegin
  2
*D39
 70
     1
 10
0.0
 20
0.0
 30
0.0
  3
*D39
  1

  0
LINE
  5
CB63
330
CB62
100
AcDbEntity
  8
30
  6
Continuous
 62
     0
370
    -2
100
AcDbLine
 10
465.1999999999999
 20
228.9999999999995
 30
0.0
 11
465.1999999999999
 21
253.4041249999995
 31
0.0
  0
LINE
  5
CB64
330
CB62
100
AcDbEntity
  8
30
  6
Continuous
 62
     0
370
    -2
100
AcDbLine
 10
497.1999999999998
 20
148.9999999999995
 30
0.0
 11
497.1999999999998
 21
253.4041249999995
 31
0.0
  0
LINE
  5
CB65
330
CB62
100
AcDbEntity
  8
30
  6
Continuous
 62
     0
370
    -2
100
AcDbLine
 10
467.1999999999997
 20
252.9041249999997
 30
0.0
 11
495.1999999999999
 21
252.9041249999997
 31
0.0
  0
INSERT
  5
CB66
330
CB62
100
AcDbEntity
  8
30
  6
Continuous
 62
     0
370
    -2
100
AcDbBlockReference
  2
_OPEN
 10
465.1999999999999
 20
252.9041249999997
 30
0.0
 41
2.0
 42
2.0
 43
2.0
 50
180.0
  0
INSERT
  5
CB67
330
CB62
100
AcDbEntity
  8
30
  6
Continuous
 62
     0
370
    -2
100
AcDbBlockReference
  2
_OPEN
 10
497.1999999999998
 20
252.9041249999997
 30
0.0
 41
2.0
 42
2.0
 43
2.0
  0
MTEXT
  5
CB68
330
CB62
100
AcDbEntity
  8
30
  6
Continuous
 62
     0
100
AcDbMText
 10
481.1999999999998
 20
258.9041249999997
 30
0.0
 40
6.0
 41
0.0
 71
     5
 72
     1
  1
\A1; 32 
 73
     1
 44
1.0
  0
POINT
  5
CB69
330
CB62
100
AcDbEntity
  8
DEFPOINTS
  6
Continuous
 62
     0
100
AcDbPoint
 10
465.1999999999999
 20
225.9999999999995
 30
0.0
  0
POINT
  5
CB6A
330
CB62
100
AcDbEntity
  8
DEFPOINTS
  6
Continuous
 62
     0
100
AcDbPoint
 10
497.1999999999998
 20
145.9999999999998
 30
0.0
  0
POINT
  5
CB6B
330
CB62
100
AcDbEntity
  8
DEFPOINTS
  6
Continuous
 62
     0
100
AcDbPoint
 10
497.1999999999998
 20
252.9041249999997
 30
0.0
  0
ENDBLK
  5
CB6D
330
CB62
100
AcDbEntity
  8
0
100
AcDbBlockEnd
  0
BLOCK
  5
CB7A
330
CB6E
100
AcDbEntity
  8
0
100
AcDbBlockBegin
  2
*D40
 70
     1
 10
0.0
 20
0.0
 30
0.0
  3
*D40
  1

  0
LINE
  5
CB6F
330
CB6E
100
AcDbEntity
  8
30
  6
Continuous
 62
     0
370
    -2
100
AcDbLine
 10
451.1999999999998
 20
228.9999999999995
 30
0.0
 11
451.1999999999998
 21
253.7374589999997
 31
0.0
  0
LINE
  5
CB70
330
CB6E
100
AcDbEntity
  8
30
  6
Continuous
 62
     0
370
    -2
100
AcDbLine
 10
465.1999999999999
 20
228.9999999999995
 30
0.0
 11
465.1999999999999
 21
253.7374589999997
 31
0.0
  0
LINE
  5
CB71
330
CB6E
100
AcDbEntity
  8
30
  6
Continuous
 62
     0
370
    -2
100
AcDbLine
 10
449.1999999999999
 20
253.2374589999995
 30
0.0
 11
447.1999999999998
 21
253.2374589999995
 31
0.0
  0
LINE
  5
CB72
330
CB6E
100
AcDbEntity
  8
30
  6
Continuous
 62
     0
370
    -2
100
AcDbLine
 10
467.1999999999997
 20
253.2374589999995
 30
0.0
 11
469.1999999999999
 21
253.2374589999995
 31
0.0
  0
MTEXT
  5
CB73
330
CB6E
100
AcDbEntity
  8
30
  6
Continuous
 62
     0
100
AcDbMText
 10
458.5143098912546
 20
258.3192861611819
 30
0.0
 40
6.0
 41
0.0
 71
     5
 72
     1
  1
\A1;14 
 73
     1
 44
1.0
  0
LINE
  5
CB74
330
CB6E
100
AcDbEntity
  8
30
  6
Continuous
 62
     0
370
    -2
100
AcDbLine
 10
451.1999999999998
 20
253.2374589999995
 30
0.0
 11
465.1999999999999
 21
253.2374589999995
 31
0.0
  0
INSERT
  5
CB75
330
CB6E
100
AcDbEntity
  8
30
  6
Continuous
 62
     0
370
    -2
100
AcDbBlockReference
  2
_OPEN
 10
451.1999999999998
 20
253.2374589999995
 30
0.0
 41
2.0
 42
2.0
 43
2.0
  0
INSERT
  5
CB76
330
CB6E
100
AcDbEntity
  8
30
  6
Continuous
 62
     0
370
    -2
100
AcDbBlockReference
  2
_OPEN
 10
465.1999999999999
 20
253.2374589999995
 30
0.0
 41
2.0
 42
2.0
 43
2.0
 50
180.0
  0
POINT
  5
CB77
330
CB6E
100
AcDbEntity
  8
DEFPOINTS
  6
Continuous
 62
     0
100
AcDbPoint
 10
451.1999999999998
 20
225.9999999999995
 30
0.0
  0
POINT
  5
CB78
330
CB6E
100
AcDbEntity
  8
DEFPOINTS
  6
Continuous
 62
     0
100
AcDbPoint
 10
465.1999999999999
 20
225.9999999999995
 30
0.0
  0
POINT
  5
CB79
330
CB6E
100
AcDbEntity
  8
DEFPOINTS
  6
Continuous
 62
     0
100
AcDbPoint
 10
465.1999999999999
 20
253.2374589999995
 30
0.0
  0
ENDBLK
  5
CB7B
330
CB6E
100
AcDbEntity
  8
0
100
AcDbBlockEnd
  0
BLOCK
  5
CB87
330
CB7C
100
AcDbEntity
  8
0
100
AcDbBlockBegin
  2
*D41
 70
     1
 10
0.0
 20
0.0
 30
0.0
  3
*D41
  1

  0
LINE
  5
CB7D
330
CB7C
100
AcDbEntity
  8
30
  6
Continuous
 62
     0
370
    -2
100
AcDbLine
 10
446.1999999999997
 20
-219.9999999999995
 30
0.0
 11
446.1999999999997
 21
-240.6496280618544
 31
0.0
  0
LINE
  5
CB7E
330
CB7C
100
AcDbEntity
  8
30
  6
Continuous
 62
     0
370
    -2
100
AcDbLine
 10
460.1999999999998
 20
-219.9999999999995
 30
0.0
 11
460.1999999999998
 21
-240.6496280618544
 31
0.0
  0
LINE
  5
CB7F
330
CB7C
100
AcDbEntity
  8
30
  6
Continuous
 62
     0
370
    -2
100
AcDbLine
 10
458.1999999999998
 20
-240.1496280618544
 30
0.0
 11
448.1999999999998
 21
-240.1496280618544
 31
0.0
  0
LINE
  5
CB80
330
CB7C
100
AcDbEntity
  8
30
  6
Continuous
 62
     0
370
    -2
100
AcDbLine
 10
446.1999999999997
 20
-240.1496280618544
 30
0.0
 11
426.5999999999998
 21
-240.1496280618544
 31
0.0
  0
INSERT
  5
CB81
330
CB7C
100
AcDbEntity
  8
30
  6
Continuous
 62
     0
370
    -2
100
AcDbBlockReference
  2
_OPEN
 10
460.1999999999998
 20
-240.1496280618544
 30
0.0
 41
2.0
 42
2.0
 43
2.0
  0
INSERT
  5
CB82
330
CB7C
100
AcDbEntity
  8
30
  6
Continuous
 62
     0
370
    -2
100
AcDbBlockReference
  2
_OPEN
 10
446.1999999999997
 20
-240.1496280618544
 30
0.0
 41
2.0
 42
2.0
 43
2.0
 50
180.0
  0
MTEXT
  5
CB83
330
CB7C
100
AcDbEntity
  8
30
  6
Continuous
 62
     0
100
AcDbMText
 10
435.3999999999998
 20
-234.1496280618544
 30
0.0
 40
6.0
 41
0.0
 71
     5
 72
     1
  1
\A1; 14 
 73
     1
 44
1.0
  0
POINT
  5
CB84
330
CB7C
100
AcDbEntity
  8
DEFPOINTS
  6
Continuous
 62
     0
100
AcDbPoint
 10
446.1999999999997
 20
-216.9999999999995
 30
0.0
  0
POINT
  5
CB85
330
CB7C
100
AcDbEntity
  8
DEFPOINTS
  6
Continuous
 62
     0
100
AcDbPoint
 10
460.1999999999998
 20
-216.9999999999995
 30
0.0
  0
POINT
  5
CB86
330
CB7C
100
AcDbEntity
  8
DEFPOINTS
  6
Continuous
 62
     0
100
AcDbPoint
 10
460.1999999999998
 20
-240.1496280618544
 30
0.0
  0
ENDBLK
  5
CB88
330
CB7C
100
AcDbEntity
  8
0
100
AcDbBlockEnd
  0
BLOCK
  5
CB93
330
CB89
100
AcDbEntity
  8
0
100
AcDbBlockBegin
  2
*D42
 70
     1
 10
0.0
 20
0.0
 30
0.0
  3
*D42
  1

  0
LINE
  5
CB8A
330
CB89
100
AcDbEntity
  8
30
  6
Continuous
 62
     0
370
    -2
100
AcDbLine
 10
460.1999999999998
 20
-219.9999999999995
 30
0.0
 11
460.1999999999998
 21
-241.1496280618544
 31
0.0
  0
LINE
  5
CB8B
330
CB89
100
AcDbEntity
  8
30
  6
Continuous
 62
     0
370
    -2
100
AcDbLine
 10
497.1999999999998
 20
-139.9999999999996
 30
0.0
 11
497.1999999999998
 21
-241.1496280618544
 31
0.0
  0
LINE
  5
CB8C
330
CB89
100
AcDbEntity
  8
30
  6
Continuous
 62
     0
370
    -2
100
AcDbLine
 10
462.1999999999998
 20
-240.6496280618544
 30
0.0
 11
495.1999999999999
 21
-240.6496280618544
 31
0.0
  0
INSERT
  5
CB8D
330
CB89
100
AcDbEntity
  8
30
  6
Continuous
 62
     0
370
    -2
100
AcDbBlockReference
  2
_OPEN
 10
460.1999999999998
 20
-240.6496280618544
 30
0.0
 41
2.0
 42
2.0
 43
2.0
 50
180.0
  0
INSERT
  5
CB8E
330
CB89
100
AcDbEntity
  8
30
  6
Continuous
 62
     0
370
    -2
100
AcDbBlockReference
  2
_OPEN
 10
497.1999999999998
 20
-240.6496280618544
 30
0.0
 41
2.0
 42
2.0
 43
2.0
  0
MTEXT
  5
CB8F
330
CB89
100
AcDbEntity
  8
30
  6
Continuous
 62
     0
100
AcDbMText
 10
478.6999999999999
 20
-234.6496280618544
 30
0.0
 40
6.0
 41
0.0
 71
     5
 72
     1
  1
\A1; 37 
 73
     1
 44
1.0
  0
POINT
  5
CB90
330
CB89
100
AcDbEntity
  8
DEFPOINTS
  6
Continuous
 62
     0
100
AcDbPoint
 10
460.1999999999998
 20
-216.9999999999995
 30
0.0
  0
POINT
  5
CB91
330
CB89
100
AcDbEntity
  8
DEFPOINTS
  6
Continuous
 62
     0
100
AcDbPoint
 10
497.1999999999998
 20
-136.9999999999996
 30
0.0
  0
POINT
  5
CB92
330
CB89
100
AcDbEntity
  8
DEFPOINTS
  6
Continuous
 62
     0
100
AcDbPoint
 10
497.1999999999998
 20
-240.6496280618544
 30
0.0
  0
ENDBLK
  5
CB94
330
CB89
100
AcDbEntity
  8
0
100
AcDbBlockEnd
  0
BLOCK
  5
CBC5
330
CB95
100
AcDbEntity
  8
0
100
AcDbBlockBegin
  2
A$C26DE51A3
 70
     0
 10
0.0
 20
0.0
 30
0.0
  3
A$C26DE51A3
  1

  0
DIMENSION
  5
CB96
330
CB95
100
AcDbEntity
  8
30
  6
Continuous
100
AcDbDimension
  2
*D34
 10
-4.000000000000227
 20
-279.8206303741577
 30
0.0
 11
6.799999999999782
 21
-273.8206303741577
 31
0.0
 12
-394.2000000000001
 22
0.0000000000000071
 32
0.0
  1
 <> 
 71
     5
 42
3.999999999999771
  3
STANDARD1
100
AcDbAlignedDimension
 13
-8.0
 23
-0.499999999999969
 33
0.0
 14
-4.000000000000227
 24
-49.99999999999978
 34
0.0
100
AcDbRotatedDimension
  0
DIMENSION
  5
CB97
330
CB95
100
AcDbEntity
  8
30
  6
Continuous
100
AcDbDimension
  2
*D33
 10
102.9999999999995
 20
-300.5509475116602
 30
0.0
 11
39.24999999999977
 21
-294.5509475116601
 31
0.0
 12
-394.2000000000001
 22
0.0000000000000071
 32
0.0
  1
 <> 
 71
     5
 42
127.4999999999995
  3
STANDARD1
100
AcDbAlignedDimension
 13
-24.5
 23
5.000000000000124
 33
0.0
 14
102.9999999999995
 24
-0.499999999999969
 34
0.0
100
AcDbRotatedDimension
  0
DIMENSION
  5
CB98
330
CB95
100
AcDbEntity
  8
30
  6
Continuous
100
AcDbDimension
  2
*D32
 10
102.9999999999995
 20
-279.8206303741577
 30
0.0
 11
49.49999999999966
 21
-273.8206303741577
 31
0.0
 12
-394.2000000000001
 22
0.0000000000000071
 32
0.0
  1
 <> 
 71
     5
 42
106.9999999999996
  3
STANDARD1
100
AcDbAlignedDimension
 13
-4.000000000000227
 23
-49.99999999999978
 33
0.0
 14
102.9999999999995
 24
-136.9999999999996
 34
0.0
100
AcDbRotatedDimension
  0
DIMENSION
  5
CB99
330
CB95
100
AcDbEntity
  8
30
  6
Continuous
100
AcDbDimension
  2
*D31
 10
102.9999999999995
 20
-261.4865723997425
 30
0.0
 11
51.49999999999977
 21
-255.4865723997425
 31
0.0
 12
-394.2000000000001
 22
0.0000000000000071
 32
0.0
  1
 <> 
 71
     5
 42
102.9999999999995
  3
STANDARD1
100
AcDbAlignedDimension
 13
0.0
 23
-49.99999999999978
 33
0.0
 14
102.9999999999995
 24
-136.9999999999996
 34
0.0
100
AcDbRotatedDimension
  0
DIMENSION
  5
CB9A
330
CB95
100
AcDbEntity
  8
30
  6
Continuous
100
AcDbDimension
  2
*D38
 10
-122.5010699999997
 20
-324.0555363480506
 30
0.0
 11
-82.25053499999978
 21
-318.0555363480507
 31
0.0
 12
-394.2000000000001
 22
0.0000000000000071
 32
0.0
 70
     1
  1
 <> 
 71
     5
 42
80.50107000000002
  3
STANDARD1
100
AcDbAlignedDimension
 13
-41.99999999999977
 23
5.000000000000124
 33
0.0
 14
-122.5010699999997
 24
5.000000000000124
 34
0.0
  0
DIMENSION
  5
CB9B
330
CB95
100
AcDbEntity
  8
30
  6
Continuous
100
AcDbDimension
  2
*D37
 10
102.9999999999995
 20
-323.7514811106503
 30
0.0
 11
30.49999999999988
 21
-317.7514811106503
 31
0.0
 12
-394.2000000000001
 22
0.0000000000000071
 32
0.0
  1
 <> 
 71
     5
 42
144.9999999999993
  3
STANDARD1
100
AcDbAlignedDimension
 13
-41.99999999999977
 23
5.000000000000124
 33
0.0
 14
102.9999999999995
 24
-136.9999999999996
 34
0.0
100
AcDbRotatedDimension
  0
LWPOLYLINE
  5
CB9C
330
CB95
100
AcDbEntity
  8
12
  6
DASHED
100
AcDbPolyline
 90
        4
 70
     0
 43
0.0
 10
74.99999999999976
 20
-112.9999999999996
 10
115.9999999999997
 20
-112.9999999999996
 10
115.9999999999997
 20
-120.9999999999995
 10
75.0
 20
-121.0000000000001
  0
LWPOLYLINE
  5
CB9D
330
CB95
100
AcDbEntity
  8
12
  6
DASHED
100
AcDbPolyline
 90
        6
 70
     0
 43
0.0
 10
74.99999999999976
 20
-108.9999999999996
 10
74.3299999999997
 20
-108.9999999999996
 42
0.4142135623730733
 10
68.99999999999955
 20
-114.3299999999995
 10
69.0
 20
-119.6699999999996
 42
0.414213562373041
 10
74.3299999999997
 20
-124.9999999999996
 10
74.99999999999976
 20
-124.9999999999996
  0
LWPOLYLINE
  5
CB9E
330
CB95
100
AcDbEntity
  8
12
  6
DASHED
100
AcDbPolyline
 90
        4
 70
     0
 43
0.0
 10
6.0
 20
-108.7499999999997
 10
74.99999999999976
 20
-108.7499999999997
 10
75.0
 20
-125.2499999999995
 10
6.0
 20
-125.2499999999995
  0
LWPOLYLINE
  5
CB9F
330
CB95
100
AcDbEntity
  8
10
  6
Continuous
100
AcDbPolyline
 90
       13
 70
     0
 43
0.0
 10
102.9999999999995
 20
140.9999999999996
 10
6.0
 20
140.9999999999996
 10
6.0
 20
115.9999999999997
 10
3.499999999999771
 20
115.9999999999997
 10
3.499999999999771
 20
55.49999999999985
 10
0.0
 20
55.49999999999985
 10
0.0
 20
-46.49999999999979
 10
3.499999999999771
 20
-46.49999999999979
 10
3.499999999999771
 20
-106.9999999999996
 10
6.0
 20
-106.9999999999996
 10
6.0
 20
-131.9999999999996
 10
102.9999999999995
 20
-131.9999999999996
 10
102.9999999999995
 20
140.9999999999996
  0
DIMENSION
  5
CBA0
330
CB95
100
AcDbEntity
  8
30
  6
Continuous
100
AcDbDimension
  2
*D41
 10
65.99999999999955
 20
-240.1496280618544
 30
0.0
 11
41.19999999999953
 21
-240.1496280618544
 31
0.0
 12
-394.2000000000001
 22
0.0000000000000071
 32
0.0
 70
   128
  1
 <> 
 71
     5
 42
14.0
  3
STANDARD1
100
AcDbAlignedDimension
 13
51.99999999999954
 23
-216.9999999999995
 33
0.0
 14
65.99999999999955
 24
-216.9999999999995
 34
0.0
100
AcDbRotatedDimension
  0
LINE
  5
CBA1
330
CB95
100
AcDbEntity
  8
17
  6
DASHDOT
100
AcDbLine
 10
47.49999999999954
 20
-196.9999999999995
 30
0.0
 11
70.49999999999954
 21
-196.9999999999995
 31
0.0
  0
LINE
  5
CBA2
330
CB95
100
AcDbEntity
  8
17
  6
DASHDOT
100
AcDbLine
 10
47.49999999999954
 20
-164.9999999999996
 30
0.0
 11
70.49999999999954
 21
-164.9999999999996
 31
0.0
  0
LINE
  5
CBA3
330
CB95
100
AcDbEntity
  8
17
  6
DASHDOT
100
AcDbLine
 10
47.49999999999954
 20
-156.9999999999996
 30
0.0
 11
70.49999999999954
 21
-156.9999999999996
 31
0.0
  0
LWPOLYLINE
  5
CBA4
330
CB95
100
AcDbEntity
  8
10
  6
Continuous
100
AcDbPolyline
 90
        4
 70
     0
 43
0.0
 10
51.99999999999954
 20
-131.9999999999996
 10
51.99999999999954
 20
-211.9999999999995
 10
65.99999999999955
 20
-211.9999999999995
 10
65.99999999999955
 20
-131.9999999999996
  0
DIMENSION
  5
CBA5
330
CB95
100
AcDbEntity
  8
30
  6
Continuous
100
AcDbDimension
  2
*D42
 10
102.9999999999995
 20
-240.6496280618544
 30
0.0
 11
84.49999999999954
 21
-234.6496280618544
 31
0.0
 12
-394.2000000000001
 22
0.0000000000000071
 32
0.0
  1
 <> 
 71
     5
 42
37.0
  3
STANDARD1
100
AcDbAlignedDimension
 13
65.99999999999955
 23
-216.9999999999995
 33
0.0
 14
102.9999999999995
 24
-136.9999999999996
 34
0.0
100
AcDbRotatedDimension
  0
DIMENSION
  5
CBA6
330
CB95
100
AcDbEntity
  8
30
  6
Continuous
100
AcDbDimension
  2
*D40
 10
70.99999999999955
 20
253.2374589999995
 30
0.0
 11
64.31430989125463
 21
258.3192861611819
 31
0.0
 12
-394.2000000000001
 22
0.0000000000000071
 32
0.0
 70
   128
  1
<> 
 71
     5
 42
14.0
  3
STANDARD1
100
AcDbAlignedDimension
 13
56.99999999999954
 23
225.9999999999995
 33
0.0
 14
70.99999999999955
 24
225.9999999999995
 34
0.0
100
AcDbRotatedDimension
1001
ACAD
1000
DSTYLE
1002
{
1070
   172
1070
     1
1070
   279
1070
     2
1002
}
  0
LINE
  5
CBA7
330
CB95
100
AcDbEntity
  8
17
  6
DASHDOT
100
AcDbLine
 10
52.49999999999954
 20
165.9999999999996
 30
0.0
 11
75.49999999999954
 21
165.9999999999996
 31
0.0
  0
LINE
  5
CBA8
330
CB95
100
AcDbEntity
  8
17
  6
DASHDOT
100
AcDbLine
 10
52.49999999999954
 20
173.9999999999995
 30
0.0
 11
75.49999999999954
 21
173.9999999999995
 31
0.0
  0
LINE
  5
CBA9
330
CB95
100
AcDbEntity
  8
17
  6
DASHDOT
100
AcDbLine
 10
52.49999999999954
 20
205.9999999999995
 30
0.0
 11
75.49999999999954
 21
205.9999999999995
 31
0.0
  0
LINE
  5
CBAA
330
CB95
100
AcDbEntity
  8
16
100
AcDbLine
 10
116.9999999999997
 20
0.0000000000000071
 30
0.0
 11
-59.39999999999987
 21
0.0000000000000071
 31
0.0
  0
ARC
  5
CBAB
330
CB95
100
AcDbEntity
  8
10
  6
Continuous
100
AcDbCircle
 10
86.74886499999979
 20
41.33240499999994
 30
0.0
 40
6.999999999999982
210
0.0
220
0.0
230
-1.0
100
AcDbArc
 50
58.99509599999745
 51
117.5859389999994
  0
ARC
  5
CBAC
330
CB95
100
AcDbEntity
  8
10
  6
Continuous
100
AcDbCircle
 10
-98.59643000000005
 20
61.04623499999989
 30
0.0
 40
15.99999999999996
100
AcDbArc
 50
19.39509599999807
 51
301.0049040000025
  0
ARC
  5
CBAD
330
CB95
100
AcDbEntity
  8
30
  6
Continuous
100
AcDbCircle
 10
103.0018205528713
 20
3.806184726795642
 30
0.0
 40
225.5060555675516
100
AcDbArc
 50
165.1394483099085
 51
179.6966782288774
  0
LINE
  5
CBAE
330
CB95
100
AcDbEntity
  8
10
  6
Continuous
100
AcDbLine
 10
-78.35871499999985
 20
61.83740999999987
 30
0.0
 11
-38.64699500000006
 21
53.38623500000002
 31
0.0
  0
LINE
  5
CBAF
330
CB95
100
AcDbEntity
  8
10
  6
Continuous
100
AcDbLine
 10
-11.775525
 20
39.46057499999986
 30
0.0
 11
-17.94055500000012
 21
22.33654499999999
 31
0.0
  0
LINE
  5
CBB0
330
CB95
100
AcDbEntity
  8
10
  6
Continuous
100
AcDbLine
 10
-7.220960000000102
 20
32.4003799999998
 30
0.0
 11
-20.46560500000006
 21
37.16874500000009
 31
0.0
  0
LINE
  5
CBB1
330
CB95
100
AcDbEntity
  8
10
  6
Continuous
100
AcDbLine
 10
-7.618015000000013
 20
24.04065499999996
 30
0.0
 11
-23.17550999999979
 21
29.6416999999999
 31
0.0
  0
LINE
  5
CBB2
330
CB95
100
AcDbEntity
  8
10
  6
Continuous
100
AcDbLine
 10
-14.18409500000052
 20
44.57904999999999
 30
0.0
 11
-38.64699500000006
 21
53.38623500000002
 31
0.0
  0
LINE
  5
CBB3
330
CB95
100
AcDbEntity
  8
10
  6
Continuous
100
AcDbLine
 10
-7.710129999999931
 20
21.52302000000001
 30
0.0
 11
-40.07753999999977
 21
33.17600499999992
 31
0.0
  0
LINE
  5
CBB4
330
CB95
100
AcDbEntity
  8
10
  6
Continuous
100
AcDbLine
 10
-7.075064999999995
 20
34.89865499999996
 30
0.0
 11
-35.74169499999971
 21
45.21927999999993
 31
0.0
  0
LINE
  5
CBB5
330
CB95
100
AcDbEntity
  8
10
  6
Continuous
100
AcDbLine
 10
-83.50731500000007
 20
47.53662499999989
 30
0.0
 11
-47.52193000000032
 21
28.7351599999999
 31
0.0
  0
ARC
  5
CBB6
330
CB95
100
AcDbEntity
  8
30
  6
Continuous
100
AcDbCircle
 10
102.9999999999995
 20
4.999999999999978
 30
0.0
 40
127.4999999999996
100
AcDbArc
 50
169.304221999999
 51
180.0
  0
ARC
  5
CBB7
330
CB95
100
AcDbEntity
  8
30
  6
Continuous
100
AcDbCircle
 10
102.9999999999995
 20
4.999999999999978
 30
0.0
 40
144.9999999999995
100
AcDbArc
 50
169.304221999999
 51
180.0
  0
LINE
  5
CBB8
330
CB95
100
AcDbEntity
  8
10
  6
Continuous
100
AcDbLine
 10
-23.05902999999989
 20
19.92797499999992
 30
0.0
 11
-47.52193000000032
 21
28.7351599999999
 31
0.0
  0
LINE
  5
CBB9
330
CB95
100
AcDbEntity
  8
10
  6
Continuous
100
AcDbLine
 10
-35.74169499999971
 20
45.21927999999993
 30
0.0
 11
-40.07753999999977
 21
33.17600499999992
 31
0.0
  0
LINE
  5
CBBA
330
CB95
100
AcDbEntity
  8
10
  6
Continuous
100
AcDbLine
 10
-20.46560500000006
 20
37.16874500000009
 30
0.0
 11
-23.17550999999979
 21
29.6416999999999
 31
0.0
  0
ARC
  5
CBBB
330
CB95
100
AcDbEntity
  8
10
  6
Continuous
100
AcDbCircle
 10
-21.70407999999996
 20
23.6915
 30
0.0
 40
3.999999999999986
100
AcDbArc
 50
250.199999999999
 51
340.1999999999993
  0
LWPOLYLINE
  5
CBBC
330
CB95
100
AcDbEntity
  8
10
  6
Continuous
100
AcDbPolyline
 90
        4
 70
     0
 43
0.0
 10
0.0
 20
44.99999999999988
 10
-7.000000000000227
 20
44.99999999999988
 10
-7.000000000000227
 20
-44.99999999999991
 10
0.0
 20
-44.99999999999991
  0
LINE
  5
CBBD
330
CB95
100
AcDbEntity
  8
10
  6
Continuous
100
AcDbLine
 10
-4.0
 20
-44.99999999999991
 30
0.0
 11
-4.0
 21
44.99999999999984
 31
0.0
  0
ARC
  5
CBBE
330
CB95
100
AcDbEntity
  8
10
  6
Continuous
100
AcDbCircle
 10
-15.53905000000009
 20
40.81552999999987
 30
0.0
 40
3.999999999999986
100
AcDbArc
 50
340.1999999999993
 51
70.19999999999902
  0
ARC
  5
CBBF
330
CB95
100
AcDbEntity
  8
10
  6
Continuous
100
AcDbCircle
 10
-76.90165499999989
 20
68.68408499999985
 30
0.0
 40
6.999999999999982
100
AcDbArc
 50
199.395095999998
 51
257.9859390000011
  0
DIMENSION
  5
CBC0
330
CB95
100
AcDbEntity
  8
30
  6
Continuous
100
AcDbDimension
  2
*D39
 10
102.9999999999995
 20
252.9041249999997
 30
0.0
 11
86.99999999999954
 21
258.9041249999997
 31
0.0
 12
-394.2000000000001
 22
0.0000000000000071
 32
0.0
  1
 <> 
 71
     5
 42
32.0
  3
STANDARD1
100
AcDbAlignedDimension
 13
70.99999999999955
 23
225.9999999999995
 33
0.0
 14
102.9999999999995
 24
145.9999999999998
 34
0.0
100
AcDbRotatedDimension
  0
DIMENSION
  5
CBC1
330
CB95
100
AcDbEntity
  8
30
  6
Continuous
100
AcDbDimension
  2
*D35
 10
102.9999999999995
 20
-72.09587499999972
 30
0.0
 11
88.99999999999966
 21
-66.09587499999972
 31
0.0
 12
-394.2000000000001
 22
0.0000000000000071
 32
0.0
  1
 <> 
 71
     5
 42
27.99999999999977
  3
STANDARD1
100
AcDbAlignedDimension
 13
74.99999999999976
 23
-103.7499999999996
 33
0.0
 14
102.9999999999995
 24
-78.34587499999968
 34
0.0
100
AcDbRotatedDimension
  0
LINE
  5
CBC2
330
CB95
100
AcDbEntity
  8
12
  6
DASHED
100
AcDbLine
 10
66.69999999999982
 20
-116.9999999999997
 30
0.0
 11
118.9999999999995
 21
-116.9999999999997
 31
0.0
  0
DIMENSION
  5
CBC3
330
CB95
100
AcDbEntity
  8
30
  6
Continuous
100
AcDbDimension
  2
*D36
 10
102.9999999999995
 20
-72.09587499999972
 30
0.0
 11
109.4999999999995
 21
-72.09587499999972
 31
0.0
 12
-394.2000000000001
 22
0.0000000000000071
 32
0.0
 70
   128
  1
 <> 
 71
     5
 42
13.00000000000022
  3
STANDARD1
100
AcDbAlignedDimension
 13
115.9999999999997
 23
-107.9999999999996
 33
0.0
 14
102.9999999999995
 24
-78.34587499999972
 34
0.0
100
AcDbRotatedDimension
  0
LWPOLYLINE
  5
CBC4
330
CB95
100
AcDbEntity
  8
10
  6
Continuous
100
AcDbPolyline
 90
        4
 70
     0
 43
0.0
 10
56.99999999999954
 20
140.9999999999996
 10
56.99999999999954
 20
220.9999999999995
 10
70.99999999999955
 20
220.9999999999995
 10
70.99999999999955
 20
140.9999999999996
  0
ENDBLK
  5
CBC6
330
CB95
100
AcDbEntity
  8
0
100
AcDbBlockEnd
  0
BLOCK
  5
D056
330
D04C
100
AcDbEntity
  8
0
100
AcDbBlockBegin
  2
*D44
 70
     1
 10
0.0
 20
0.0
 30
0.0
  3
*D44
  1

  0
LINE
  5
D0AC
330
D04C
100
AcDbEntity
  8
30
  6
Continuous
 62
     0
370
    -2
100
AcDbLine
 10
117.5
 20
-212.9999999999999
 30
0.0
 11
117.5
 21
-232.5
 31
0.0
  0
LINE
  5
D0AD
330
D04C
100
AcDbEntity
  8
30
  6
Continuous
 62
     0
370
    -2
100
AcDbLine
 10
162.5
 20
-212.9999999999999
 30
0.0
 11
162.5
 21
-232.5
 31
0.0
  0
LINE
  5
D0AE
330
D04C
100
AcDbEntity
  8
30
  6
Continuous
 62
     0
370
    -2
100
AcDbLine
 10
119.5
 20
-232.0
 30
0.0
 11
160.4999999999999
 21
-232.0
 31
0.0
  0
INSERT
  5
D0AF
330
D04C
100
AcDbEntity
  8
30
  6
Continuous
 62
     0
370
    -2
100
AcDbBlockReference
  2
_OPEN
 10
117.5
 20
-232.0
 30
0.0
 41
2.0
 42
2.0
 43
2.0
 50
180.0
  0
INSERT
  5
D0B0
330
D04C
100
AcDbEntity
  8
30
  6
Continuous
 62
     0
370
    -2
100
AcDbBlockReference
  2
_OPEN
 10
162.5
 20
-232.0
 30
0.0
 41
2.0
 42
2.0
 43
2.0
  0
MTEXT
  5
D0B1
330
D04C
100
AcDbEntity
  8
30
  6
Continuous
 62
     0
100
AcDbMText
 10
140.0
 20
-229.0
 30
0.0
 40
4.0
 41
0.0
 71
     5
 72
     1
  1
\A1;45
 73
     1
 44
1.0
  0
POINT
  5
D0B2
330
D04C
100
AcDbEntity
  8
DEFPOINTS
  6
Continuous
 62
     0
100
AcDbPoint
 10
117.5
 20
-211.9999999999999
 30
0.0
  0
POINT
  5
D0B3
330
D04C
100
AcDbEntity
  8
DEFPOINTS
  6
Continuous
 62
     0
100
AcDbPoint
 10
162.5
 20
-211.9999999999999
 30
0.0
  0
POINT
  5
D0B4
330
D04C
100
AcDbEntity
  8
DEFPOINTS
  6
Continuous
 62
     0
100
AcDbPoint
 10
162.5
 20
-232.0
 30
0.0
  0
ENDBLK
  5
D057
330
D04C
100
AcDbEntity
  8
0
100
AcDbBlockEnd
  0
BLOCK
  5
D14F
330
D145
100
AcDbEntity
  8
0
100
AcDbBlockBegin
  2
*D45
 70
     1
 10
0.0
 20
0.0
 30
0.0
  3
*D45
  1

  0
LINE
  5
D174
330
D145
100
AcDbEntity
  8
30
  6
Continuous
 62
     0
370
    -2
100
AcDbLine
 10
373.6999999999998
 20
-548.5708385812682
 30
0.0
 11
373.6999999999998
 21
-657.4013683631346
 31
0.0
  0
LINE
  5
D175
330
D145
100
AcDbEntity
  8
30
  6
Continuous
 62
     0
370
    -2
100
AcDbLine
 10
426.6999999999998
 20
-548.5708385812682
 30
0.0
 11
426.6999999999998
 21
-657.4013683631346
 31
0.0
  0
LINE
  5
D176
330
D145
100
AcDbEntity
  8
30
  6
Continuous
 62
     0
370
    -2
100
AcDbLine
 10
375.6999999999998
 20
-656.9013683631346
 30
0.0
 11
424.6999999999998
 21
-656.9013683631346
 31
0.0
  0
INSERT
  5
D177
330
D145
100
AcDbEntity
  8
30
  6
Continuous
 62
     0
370
    -2
100
AcDbBlockReference
  2
_OPEN
 10
373.6999999999998
 20
-656.9013683631346
 30
0.0
 41
2.0
 42
2.0
 43
2.0
 50
180.0
  0
INSERT
  5
D178
330
D145
100
AcDbEntity
  8
30
  6
Continuous
 62
     0
370
    -2
100
AcDbBlockReference
  2
_OPEN
 10
426.6999999999998
 20
-656.9013683631346
 30
0.0
 41
2.0
 42
2.0
 43
2.0
  0
MTEXT
  5
D179
330
D145
100
AcDbEntity
  8
30
  6
Continuous
 62
     0
100
AcDbMText
 10
400.1999999999998
 20
-650.9013683631345
 30
0.0
 40
6.0
 41
0.0
 71
     5
 72
     1
  1
\A1;53
 73
     1
 44
1.0
  0
POINT
  5
D17A
330
D145
100
AcDbEntity
  8
DEFPOINTS
  6
Continuous
 62
     0
100
AcDbPoint
 10
373.6999999999998
 20
-545.5708385812681
 30
0.0
  0
POINT
  5
D17B
330
D145
100
AcDbEntity
  8
DEFPOINTS
  6
Continuous
 62
     0
100
AcDbPoint
 10
426.6999999999998
 20
-545.5708385812681
 30
0.0
  0
POINT
  5
D17C
330
D145
100
AcDbEntity
  8
DEFPOINTS
  6
Continuous
 62
     0
100
AcDbPoint
 10
426.6999999999998
 20
-656.9013683631346
 30
0.0
  0
ENDBLK
  5
D150
330
D145
100
AcDbEntity
  8
0
100
AcDbBlockEnd
  0
BLOCK
  5
D15B
330
D151
100
AcDbEntity
  8
0
100
AcDbBlockBegin
  2
*D46
 70
     1
 10
0.0
 20
0.0
 30
0.0
  3
*D46
  1

  0
LINE
  5
D17D
330
D151
100
AcDbEntity
  8
30
  6
Continuous
 62
     0
370
    -2
100
AcDbLine
 10
314.1999999999999
 20
-547.5708385812683
 30
0.0
 11
314.1999999999999
 21
-672.1667135812678
 31
0.0
  0
LINE
  5
D17E
330
D151
100
AcDbEntity
  8
30
  6
Continuous
 62
     0
370
    -2
100
AcDbLine
 10
486.1999999999999
 20
-547.5708385812683
 30
0.0
 11
486.1999999999999
 21
-672.1667135812678
 31
0.0
  0
LINE
  5
D17F
330
D151
100
AcDbEntity
  8
30
  6
Continuous
 62
     0
370
    -2
100
AcDbLine
 10
316.1999999999999
 20
-671.6667135812677
 30
0.0
 11
484.1999999999996
 21
-671.6667135812677
 31
0.0
  0
INSERT
  5
D180
330
D151
100
AcDbEntity
  8
30
  6
Continuous
 62
     0
370
    -2
100
AcDbBlockReference
  2
_OPEN
 10
314.1999999999999
 20
-671.6667135812677
 30
0.0
 41
2.0
 42
2.0
 43
2.0
 50
180.0
  0
INSERT
  5
D181
330
D151
100
AcDbEntity
  8
30
  6
Continuous
 62
     0
370
    -2
100
AcDbBlockReference
  2
_OPEN
 10
486.1999999999999
 20
-671.6667135812677
 30
0.0
 41
2.0
 42
2.0
 43
2.0
  0
MTEXT
  5
D182
330
D151
100
AcDbEntity
  8
30
  6
Continuous
 62
     0
100
AcDbMText
 10
400.1999999999998
 20
-665.6667135812678
 30
0.0
 40
6.0
 41
0.0
 71
     5
 72
     1
  1
\A1; 172 
 73
     1
 44
1.0
  0
POINT
  5
D183
330
D151
100
AcDbEntity
  8
DEFPOINTS
  6
Continuous
 62
     0
100
AcDbPoint
 10
314.1999999999999
 20
-544.5708385812682
 30
0.0
  0
POINT
  5
D184
330
D151
100
AcDbEntity
  8
DEFPOINTS
  6
Continuous
 62
     0
100
AcDbPoint
 10
486.1999999999999
 20
-544.5708385812682
 30
0.0
  0
POINT
  5
D185
330
D151
100
AcDbEntity
  8
DEFPOINTS
  6
Continuous
 62
     0
100
AcDbPoint
 10
486.1999999999999
 20
-671.6667135812677
 30
0.0
  0
ENDBLK
  5
D15C
330
D151
100
AcDbEntity
  8
0
100
AcDbBlockEnd
  0
BLOCK
  5
D166
330
D15D
100
AcDbEntity
  8
0
100
AcDbBlockBegin
  2
*D47
 70
     1
 10
0.0
 20
0.0
 30
0.0
  3
*D47
  1

  0
LINE
  5
D186
330
D15D
100
AcDbEntity
  8
30
  6
Continuous
 62
     0
370
    -2
100
AcDbLine
 10
321.1453388196797
 20
-467.5147881352404
 30
0.0
 11
321.3816735245992
 21
-469.5007755237329
 31
0.0
  0
LINE
  5
D187
330
D15D
100
AcDbEntity
  8
30
  6
Continuous
 62
     0
370
    -2
100
AcDbLine
 10
321.3816735245992
 20
-469.5007755237329
 30
0.0
 11
334.3816735245993
 21
-469.5007755237331
 31
0.0
  0
INSERT
  5
D188
330
D15D
100
AcDbEntity
  8
30
  6
Continuous
 62
     0
370
    -2
100
AcDbBlockReference
  2
_OPEN
 10
320.9090041147605
 20
-465.5288007467478
 30
0.0
 41
2.0
 42
2.0
 43
2.0
 50
96.78634706160394
  0
MTEXT
  5
D189
330
D15D
100
AcDbEntity
  8
30
  6
Continuous
 62
     0
100
AcDbMText
 10
329.3816735245993
 20
-463.5007755237331
 30
0.0
 40
6.0
 41
0.0
 71
     5
 72
     1
  1
\A1;R6
 73
     1
 44
1.0
  0
LINE
  5
D18A
330
D15D
100
AcDbEntity
  8
30
  6
Continuous
 62
     0
370
    -2
100
AcDbLine
 10
320.1100000000021
 20
-459.5708385812684
 30
0.0
 11
320.290000000002
 21
-459.5708385812684
 31
0.0
  0
LINE
  5
D18B
330
D15D
100
AcDbEntity
  8
30
  6
Continuous
 62
     0
370
    -2
100
AcDbLine
 10
320.2000000000018
 20
-459.6608385812682
 30
0.0
 11
320.2000000000018
 21
-459.4808385812686
 31
0.0
  0
POINT
  5
D18C
330
D15D
100
AcDbEntity
  8
DEFPOINTS
  6
Continuous
 62
     0
100
AcDbPoint
 10
320.9090041147605
 20
-465.5288007467478
 30
0.0
  0
POINT
  5
D18D
330
D15D
100
AcDbEntity
  8
DEFPOINTS
  6
Continuous
 62
     0
100
AcDbPoint
 10
320.2000000000018
 20
-459.5708385812684
 30
0.0
  0
ENDBLK
  5
D167
330
D15D
100
AcDbEntity
  8
0
100
AcDbBlockEnd
  0
BLOCK
  5
D20F
330
D205
100
AcDbEntity
  8
0
100
AcDbBlockBegin
  2
*D48
 70
     1
 10
0.0
 20
0.0
 30
0.0
  3
*D48
  1

  0
LINE
  5
D299
330
D205
100
AcDbEntity
  8
30
  6
Continuous
 62
     0
370
    -2
100
AcDbLine
 10
464.9999999999995
 20
228.9999999999995
 30
0.0
 11
464.9999999999995
 21
253.4041249999995
 31
0.0
  0
LINE
  5
D29A
330
D205
100
AcDbEntity
  8
30
  6
Continuous
 62
     0
370
    -2
100
AcDbLine
 10
496.9999999999995
 20
148.9999999999995
 30
0.0
 11
496.9999999999995
 21
253.4041249999995
 31
0.0
  0
LINE
  5
D29B
330
D205
100
AcDbEntity
  8
30
  6
Continuous
 62
     0
370
    -2
100
AcDbLine
 10
466.9999999999993
 20
252.9041249999997
 30
0.0
 11
494.9999999999993
 21
252.9041249999997
 31
0.0
  0
INSERT
  5
D29C
330
D205
100
AcDbEntity
  8
30
  6
Continuous
 62
     0
370
    -2
100
AcDbBlockReference
  2
_OPEN
 10
464.9999999999995
 20
252.9041249999997
 30
0.0
 41
2.0
 42
2.0
 43
2.0
 50
180.0
  0
INSERT
  5
D29D
330
D205
100
AcDbEntity
  8
30
  6
Continuous
 62
     0
370
    -2
100
AcDbBlockReference
  2
_OPEN
 10
496.9999999999995
 20
252.9041249999997
 30
0.0
 41
2.0
 42
2.0
 43
2.0
  0
MTEXT
  5
D29E
330
D205
100
AcDbEntity
  8
30
  6
Continuous
 62
     0
100
AcDbMText
 10
480.9999999999995
 20
258.9041249999997
 30
0.0
 40
6.0
 41
0.0
 71
     5
 72
     1
  1
\A1; 32 
 73
     1
 44
1.0
  0
POINT
  5
D29F
330
D205
100
AcDbEntity
  8
DEFPOINTS
  6
Continuous
 62
     0
100
AcDbPoint
 10
464.9999999999995
 20
225.9999999999995
 30
0.0
  0
POINT
  5
D2A0
330
D205
100
AcDbEntity
  8
DEFPOINTS
  6
Continuous
 62
     0
100
AcDbPoint
 10
496.9999999999995
 20
145.9999999999998
 30
0.0
  0
POINT
  5
D2A1
330
D205
100
AcDbEntity
  8
DEFPOINTS
  6
Continuous
 62
     0
100
AcDbPoint
 10
496.9999999999995
 20
252.9041249999997
 30
0.0
  0
ENDBLK
  5
D210
330
D205
100
AcDbEntity
  8
0
100
AcDbBlockEnd
  0
BLOCK
  5
D21B
330
D211
100
AcDbEntity
  8
0
100
AcDbBlockBegin
  2
*D49
 70
     1
 10
0.0
 20
0.0
 30
0.0
  3
*D49
  1

  0
LINE
  5
D2A2
330
D211
100
AcDbEntity
  8
30
  6
Continuous
 62
     0
370
    -2
100
AcDbLine
 10
468.9999999999995
 20
-100.7499999999996
 30
0.0
 11
468.9999999999995
 21
-71.59587499999972
 31
0.0
  0
LINE
  5
D2A3
330
D211
100
AcDbEntity
  8
30
  6
Continuous
 62
     0
370
    -2
100
AcDbLine
 10
496.9999999999995
 20
-75.34587499999968
 30
0.0
 11
496.9999999999995
 21
-71.59587499999972
 31
0.0
  0
LINE
  5
D2A4
330
D211
100
AcDbEntity
  8
30
  6
Continuous
 62
     0
370
    -2
100
AcDbLine
 10
470.9999999999998
 20
-72.09587499999972
 30
0.0
 11
494.9999999999993
 21
-72.09587499999972
 31
0.0
  0
INSERT
  5
D2A5
330
D211
100
AcDbEntity
  8
30
  6
Continuous
 62
     0
370
    -2
100
AcDbBlockReference
  2
_OPEN
 10
468.9999999999995
 20
-72.09587499999972
 30
0.0
 41
2.0
 42
2.0
 43
2.0
 50
180.0
  0
INSERT
  5
D2A6
330
D211
100
AcDbEntity
  8
30
  6
Continuous
 62
     0
370
    -2
100
AcDbBlockReference
  2
_OPEN
 10
496.9999999999995
 20
-72.09587499999972
 30
0.0
 41
2.0
 42
2.0
 43
2.0
  0
MTEXT
  5
D2A7
330
D211
100
AcDbEntity
  8
30
  6
Continuous
 62
     0
100
AcDbMText
 10
482.9999999999996
 20
-66.09587499999972
 30
0.0
 40
6.0
 41
0.0
 71
     5
 72
     1
  1
\A1; 28 
 73
     1
 44
1.0
  0
POINT
  5
D2A8
330
D211
100
AcDbEntity
  8
DEFPOINTS
  6
Continuous
 62
     0
100
AcDbPoint
 10
468.9999999999995
 20
-103.7499999999996
 30
0.0
  0
POINT
  5
D2A9
330
D211
100
AcDbEntity
  8
DEFPOINTS
  6
Continuous
 62
     0
100
AcDbPoint
 10
496.9999999999995
 20
-78.34587499999968
 30
0.0
  0
POINT
  5
D2AA
330
D211
100
AcDbEntity
  8
DEFPOINTS
  6
Continuous
 62
     0
100
AcDbPoint
 10
496.9999999999995
 20
-72.09587499999972
 30
0.0
  0
ENDBLK
  5
D21C
330
D211
100
AcDbEntity
  8
0
100
AcDbBlockEnd
  0
BLOCK
  5
D227
330
D21D
100
AcDbEntity
  8
0
100
AcDbBlockBegin
  2
*D50
 70
     1
 10
0.0
 20
0.0
 30
0.0
  3
*D50
  1

  0
LINE
  5
D2AB
330
D21D
100
AcDbEntity
  8
30
  6
Continuous
 62
     0
370
    -2
100
AcDbLine
 10
509.9999999999996
 20
-104.9999999999996
 30
0.0
 11
509.9999999999996
 21
-71.59587499999972
 31
0.0
  0
LINE
  5
D2AC
330
D21D
100
AcDbEntity
  8
30
  6
Continuous
 62
     0
370
    -2
100
AcDbLine
 10
496.9999999999995
 20
-75.34587499999972
 30
0.0
 11
496.9999999999995
 21
-71.59587499999972
 31
0.0
  0
LINE
  5
D2AD
330
D21D
100
AcDbEntity
  8
30
  6
Continuous
 62
     0
370
    -2
100
AcDbLine
 10
507.9999999999997
 20
-72.09587499999972
 30
0.0
 11
498.9999999999993
 21
-72.09587499999972
 31
0.0
  0
INSERT
  5
D2AE
330
D21D
100
AcDbEntity
  8
30
  6
Continuous
 62
     0
370
    -2
100
AcDbBlockReference
  2
_OPEN
 10
509.9999999999996
 20
-72.09587499999972
 30
0.0
 41
2.0
 42
2.0
 43
2.0
  0
INSERT
  5
D2AF
330
D21D
100
AcDbEntity
  8
30
  6
Continuous
 62
     0
370
    -2
100
AcDbBlockReference
  2
_OPEN
 10
496.9999999999995
 20
-72.09587499999972
 30
0.0
 41
2.0
 42
2.0
 43
2.0
 50
180.0
  0
MTEXT
  5
D2B0
330
D21D
100
AcDbEntity
  8
30
  6
Continuous
 62
     0
100
AcDbMText
 10
503.4999999999993
 20
-66.09587499999972
 30
0.0
 40
6.0
 41
0.0
 71
     5
 72
     1
  1
\A1; 13 
 73
     1
 44
1.0
  0
POINT
  5
D2B1
330
D21D
100
AcDbEntity
  8
DEFPOINTS
  6
Continuous
 62
     0
100
AcDbPoint
 10
509.9999999999996
 20
-107.9999999999996
 30
0.0
  0
POINT
  5
D2B2
330
D21D
100
AcDbEntity
  8
DEFPOINTS
  6
Continuous
 62
     0
100
AcDbPoint
 10
496.9999999999995
 20
-78.34587499999972
 30
0.0
  0
POINT
  5
D2B3
330
D21D
100
AcDbEntity
  8
DEFPOINTS
  6
Continuous
 62
     0
100
AcDbPoint
 10
496.9999999999995
 20
-72.09587499999972
 30
0.0
  0
ENDBLK
  5
D228
330
D21D
100
AcDbEntity
  8
0
100
AcDbBlockEnd
  0
BLOCK
  5
D234
330
D229
100
AcDbEntity
  8
0
100
AcDbBlockBegin
  2
*D51
 70
     1
 10
0.0
 20
0.0
 30
0.0
  3
*D51
  1

  0
LINE
  5
D43D
330
D229
100
AcDbEntity
  8
30
  6
Continuous
 62
     0
370
    -2
100
AcDbLine
 10
386.0
 20
-2.499999999999968
 30
0.0
 11
386.0
 21
-269.9696843384355
 31
0.0
  0
LINE
  5
D43E
330
D229
100
AcDbEntity
  8
30
  6
Continuous
 62
     0
370
    -2
100
AcDbLine
 10
389.9999999999997
 20
-51.99999999999977
 30
0.0
 11
389.9999999999997
 21
-269.9696843384355
 31
0.0
  0
LINE
  5
D43F
330
D229
100
AcDbEntity
  8
30
  6
Continuous
 62
     0
370
    -2
100
AcDbLine
 10
384.0
 20
-269.8696843384353
 30
0.0
 11
382.0
 21
-269.8696843384353
 31
0.0
  0
LINE
  5
D440
330
D229
100
AcDbEntity
  8
30
  6
Continuous
 62
     0
370
    -2
100
AcDbLine
 10
391.9999999999997
 20
-269.8696843384353
 30
0.0
 11
393.9999999999997
 21
-269.8696843384353
 31
0.0
  0
MTEXT
  5
D441
330
D229
100
AcDbEntity
  8
30
  6
Continuous
 62
     0
100
AcDbMText
 10
379.9523608477993
 20
-265.6288760162979
 30
0.0
 40
6.0
 41
0.0
 71
     5
 72
     1
  1
\A1; 4 
 73
     1
 44
1.0
  0
LINE
  5
D442
330
D229
100
AcDbEntity
  8
30
  6
Continuous
 62
     0
370
    -2
100
AcDbLine
 10
386.0
 20
-269.8696843384353
 30
0.0
 11
389.9999999999997
 21
-269.8696843384353
 31
0.0
  0
INSERT
  5
D443
330
D229
100
AcDbEntity
  8
30
  6
Continuous
 62
     0
370
    -2
100
AcDbBlockReference
  2
_OPEN
 10
386.0
 20
-269.8696843384353
 30
0.0
 41
2.0
 42
2.0
 43
2.0
  0
INSERT
  5
D444
330
D229
100
AcDbEntity
  8
30
  6
Continuous
 62
     0
370
    -2
100
AcDbBlockReference
  2
_OPEN
 10
389.9999999999997
 20
-269.8696843384353
 30
0.0
 41
2.0
 42
2.0
 43
2.0
 50
180.0
  0
POINT
  5
D445
330
D229
100
AcDbEntity
  8
DEFPOINTS
  6
Continuous
 62
     0
100
AcDbPoint
 10
386.0
 20
-0.499999999999969
 30
0.0
  0
POINT
  5
D446
330
D229
100
AcDbEntity
  8
DEFPOINTS
  6
Continuous
 62
     0
100
AcDbPoint
 10
389.9999999999997
 20
-49.99999999999978
 30
0.0
  0
POINT
  5
D447
330
D229
100
AcDbEntity
  8
DEFPOINTS
  6
Continuous
 62
     0
100
AcDbPoint
 10
389.9999999999997
 20
-269.8696843384353
 30
0.0
  0
ENDBLK
  5
D235
330
D229
100
AcDbEntity
  8
0
100
AcDbBlockEnd
  0
BLOCK
  5
D240
330
D236
100
AcDbEntity
  8
0
100
AcDbBlockBegin
  2
*D52
 70
     1
 10
0.0
 20
0.0
 30
0.0
  3
*D52
  1

  0
LINE
  5
D434
330
D236
100
AcDbEntity
  8
30
  6
Continuous
 62
     0
370
    -2
100
AcDbLine
 10
369.5
 20
2.000000000000123
 30
0.0
 11
369.5
 21
-291.1000014759378
 31
0.0
  0
LINE
  5
D435
330
D236
100
AcDbEntity
  8
30
  6
Continuous
 62
     0
370
    -2
100
AcDbLine
 10
496.9999999999995
 20
-3.499999999999968
 30
0.0
 11
496.9999999999995
 21
-291.1000014759378
 31
0.0
  0
LINE
  5
D436
330
D236
100
AcDbEntity
  8
30
  6
Continuous
 62
     0
370
    -2
100
AcDbLine
 10
371.4999999999998
 20
-290.6000014759378
 30
0.0
 11
494.9999999999993
 21
-290.6000014759378
 31
0.0
  0
INSERT
  5
D437
330
D236
100
AcDbEntity
  8
30
  6
Continuous
 62
     0
370
    -2
100
AcDbBlockReference
  2
_OPEN
 10
369.5
 20
-290.6000014759378
 30
0.0
 41
2.0
 42
2.0
 43
2.0
 50
180.0
  0
INSERT
  5
D438
330
D236
100
AcDbEntity
  8
30
  6
Continuous
 62
     0
370
    -2
100
AcDbBlockReference
  2
_OPEN
 10
496.9999999999995
 20
-290.6000014759378
 30
0.0
 41
2.0
 42
2.0
 43
2.0
  0
MTEXT
  5
D439
330
D236
100
AcDbEntity
  8
30
  6
Continuous
 62
     0
100
AcDbMText
 10
433.2499999999996
 20
-284.6000014759378
 30
0.0
 40
6.0
 41
0.0
 71
     5
 72
     1
  1
\A1; 127.5 
 73
     1
 44
1.0
  0
POINT
  5
D43A
330
D236
100
AcDbEntity
  8
DEFPOINTS
  6
Continuous
 62
     0
100
AcDbPoint
 10
369.5
 20
5.000000000000124
 30
0.0
  0
POINT
  5
D43B
330
D236
100
AcDbEntity
  8
DEFPOINTS
  6
Continuous
 62
     0
100
AcDbPoint
 10
496.9999999999995
 20
-0.499999999999969
 30
0.0
  0
POINT
  5
D43C
330
D236
100
AcDbEntity
  8
DEFPOINTS
  6
Continuous
 62
     0
100
AcDbPoint
 10
496.9999999999995
 20
-290.6000014759378
 30
0.0
  0
ENDBLK
  5
D241
330
D236
100
AcDbEntity
  8
0
100
AcDbBlockEnd
  0
BLOCK
  5
D24C
330
D242
100
AcDbEntity
  8
0
100
AcDbBlockBegin
  2
*D53
 70
     1
 10
0.0
 20
0.0
 30
0.0
  3
*D53
  1

  0
LINE
  5
D42B
330
D242
100
AcDbEntity
  8
30
  6
Continuous
 62
     0
370
    -2
100
AcDbLine
 10
389.9999999999997
 20
-52.99999999999978
 30
0.0
 11
389.9999999999997
 21
-270.3696843384355
 31
0.0
  0
LINE
  5
D42C
330
D242
100
AcDbEntity
  8
30
  6
Continuous
 62
     0
370
    -2
100
AcDbLine
 10
496.9999999999995
 20
-139.9999999999996
 30
0.0
 11
496.9999999999995
 21
-270.3696843384355
 31
0.0
  0
LINE
  5
D42D
330
D242
100
AcDbEntity
  8
30
  6
Continuous
 62
     0
370
    -2
100
AcDbLine
 10
391.9999999999997
 20
-269.8696843384353
 30
0.0
 11
494.9999999999993
 21
-269.8696843384353
 31
0.0
  0
INSERT
  5
D42E
330
D242
100
AcDbEntity
  8
30
  6
Continuous
 62
     0
370
    -2
100
AcDbBlockReference
  2
_OPEN
 10
389.9999999999997
 20
-269.8696843384353
 30
0.0
 41
2.0
 42
2.0
 43
2.0
 50
180.0
  0
INSERT
  5
D42F
330
D242
100
AcDbEntity
  8
30
  6
Continuous
 62
     0
370
    -2
100
AcDbBlockReference
  2
_OPEN
 10
496.9999999999995
 20
-269.8696843384353
 30
0.0
 41
2.0
 42
2.0
 43
2.0
  0
MTEXT
  5
D430
330
D242
100
AcDbEntity
  8
30
  6
Continuous
 62
     0
100
AcDbMText
 10
443.4999999999996
 20
-263.8696843384355
 30
0.0
 40
6.0
 41
0.0
 71
     5
 72
     1
  1
\A1; 107 
 73
     1
 44
1.0
  0
POINT
  5
D431
330
D242
100
AcDbEntity
  8
DEFPOINTS
  6
Continuous
 62
     0
100
AcDbPoint
 10
389.9999999999997
 20
-49.99999999999978
 30
0.0
  0
POINT
  5
D432
330
D242
100
AcDbEntity
  8
DEFPOINTS
  6
Continuous
 62
     0
100
AcDbPoint
 10
496.9999999999995
 20
-136.9999999999996
 30
0.0
  0
POINT
  5
D433
330
D242
100
AcDbEntity
  8
DEFPOINTS
  6
Continuous
 62
     0
100
AcDbPoint
 10
496.9999999999995
 20
-269.8696843384353
 30
0.0
  0
ENDBLK
  5
D24D
330
D242
100
AcDbEntity
  8
0
100
AcDbBlockEnd
  0
BLOCK
  5
D258
330
D24E
100
AcDbEntity
  8
0
100
AcDbBlockBegin
  2
*D54
 70
     1
 10
0.0
 20
0.0
 30
0.0
  3
*D54
  1

  0
LINE
  5
D3C4
330
D24E
100
AcDbEntity
  8
30
  6
Continuous
 62
     0
370
    -2
100
AcDbLine
 10
394.0
 20
-52.99999999999978
 30
0.0
 11
394.0
 21
-250.3050253795751
 31
0.0
  0
LINE
  5
D3C5
330
D24E
100
AcDbEntity
  8
30
  6
Continuous
 62
     0
370
    -2
100
AcDbLine
 10
496.9999999999995
 20
-139.9999999999996
 30
0.0
 11
496.9999999999995
 21
-250.3050253795751
 31
0.0
  0
LINE
  5
D3C6
330
D24E
100
AcDbEntity
  8
30
  6
Continuous
 62
     0
370
    -2
100
AcDbLine
 10
396.0
 20
-249.8050253795752
 30
0.0
 11
494.9999999999993
 21
-249.8050253795752
 31
0.0
  0
INSERT
  5
D3C7
330
D24E
100
AcDbEntity
  8
30
  6
Continuous
 62
     0
370
    -2
100
AcDbBlockReference
  2
_OPEN
 10
394.0
 20
-249.8050253795752
 30
0.0
 41
2.0
 42
2.0
 43
2.0
 50
180.0
  0
INSERT
  5
D3C8
330
D24E
100
AcDbEntity
  8
30
  6
Continuous
 62
     0
370
    -2
100
AcDbBlockReference
  2
_OPEN
 10
496.9999999999995
 20
-249.8050253795752
 30
0.0
 41
2.0
 42
2.0
 43
2.0
  0
MTEXT
  5
D3C9
330
D24E
100
AcDbEntity
  8
30
  6
Continuous
 62
     0
100
AcDbMText
 10
445.4999999999997
 20
-243.8050253795752
 30
0.0
 40
6.0
 41
0.0
 71
     5
 72
     1
  1
\A1; 103 
 73
     1
 44
1.0
  0
POINT
  5
D3CA
330
D24E
100
AcDbEntity
  8
DEFPOINTS
  6
Continuous
 62
     0
100
AcDbPoint
 10
394.0
 20
-49.99999999999978
 30
0.0
  0
POINT
  5
D3CB
330
D24E
100
AcDbEntity
  8
DEFPOINTS
  6
Continuous
 62
     0
100
AcDbPoint
 10
496.9999999999995
 20
-136.9999999999996
 30
0.0
  0
POINT
  5
D3CC
330
D24E
100
AcDbEntity
  8
DEFPOINTS
  6
Continuous
 62
     0
100
AcDbPoint
 10
496.9999999999995
 20
-249.8050253795752
 30
0.0
  0
ENDBLK
  5
D259
330
D24E
100
AcDbEntity
  8
0
100
AcDbBlockEnd
  0
BLOCK
  5
D264
330
D25A
100
AcDbEntity
  8
0
100
AcDbBlockBegin
  2
*D55
 70
     1
 10
0.0
 20
0.0
 30
0.0
  3
*D55
  1

  0
LINE
  5
D422
330
D25A
100
AcDbEntity
  8
30
  6
Continuous
 62
     0
370
    -2
100
AcDbLine
 10
352.0000000000001
 20
2.000000000000123
 30
0.0
 11
352.0000000000001
 21
-314.6045903123286
 31
0.0
  0
LINE
  5
D423
330
D25A
100
AcDbEntity
  8
30
  6
Continuous
 62
     0
370
    -2
100
AcDbLine
 10
271.4989300000002
 20
2.000000000000123
 30
0.0
 11
271.4989300000002
 21
-314.6045903123286
 31
0.0
  0
LINE
  5
D424
330
D25A
100
AcDbEntity
  8
30
  6
Continuous
 62
     0
370
    -2
100
AcDbLine
 10
350.0000000000001
 20
-314.1045903123286
 30
0.0
 11
273.4989299999999
 21
-314.1045903123286
 31
0.0
  0
INSERT
  5
D425
330
D25A
100
AcDbEntity
  8
30
  6
Continuous
 62
     0
370
    -2
100
AcDbBlockReference
  2
_OPEN
 10
352.0000000000001
 20
-314.1045903123286
 30
0.0
 41
2.0
 42
2.0
 43
2.0
  0
INSERT
  5
D426
330
D25A
100
AcDbEntity
  8
30
  6
Continuous
 62
     0
370
    -2
100
AcDbBlockReference
  2
_OPEN
 10
271.4989300000002
 20
-314.1045903123286
 30
0.0
 41
2.0
 42
2.0
 43
2.0
 50
180.0
  0
MTEXT
  5
D427
330
D25A
100
AcDbEntity
  8
30
  6
Continuous
 62
     0
100
AcDbMText
 10
311.7494650000002
 20
-308.1045903123286
 30
0.0
 40
6.0
 41
0.0
 71
     5
 72
     1
  1
\A1; 80.5 
 73
     1
 44
1.0
  0
POINT
  5
D428
330
D25A
100
AcDbEntity
  8
DEFPOINTS
  6
Continuous
 62
     0
100
AcDbPoint
 10
352.0000000000001
 20
5.000000000000124
 30
0.0
  0
POINT
  5
D429
330
D25A
100
AcDbEntity
  8
DEFPOINTS
  6
Continuous
 62
     0
100
AcDbPoint
 10
271.4989300000002
 20
5.000000000000124
 30
0.0
  0
POINT
  5
D42A
330
D25A
100
AcDbEntity
  8
DEFPOINTS
  6
Continuous
 62
     0
100
AcDbPoint
 10
271.4989300000002
 20
-314.1045903123286
 30
0.0
  0
ENDBLK
  5
D265
330
D25A
100
AcDbEntity
  8
0
100
AcDbBlockEnd
  0
BLOCK
  5
D270
330
D266
100
AcDbEntity
  8
0
100
AcDbBlockBegin
  2
*D56
 70
     1
 10
0.0
 20
0.0
 30
0.0
  3
*D56
  1

  0
LINE
  5
D419
330
D266
100
AcDbEntity
  8
30
  6
Continuous
 62
     0
370
    -2
100
AcDbLine
 10
352.0000000000001
 20
2.000000000000123
 30
0.0
 11
352.0000000000001
 21
-314.3005350749281
 31
0.0
  0
LINE
  5
D41A
330
D266
100
AcDbEntity
  8
30
  6
Continuous
 62
     0
370
    -2
100
AcDbLine
 10
496.9999999999995
 20
-139.9999999999996
 30
0.0
 11
496.9999999999995
 21
-314.3005350749281
 31
0.0
  0
LINE
  5
D41B
330
D266
100
AcDbEntity
  8
30
  6
Continuous
 62
     0
370
    -2
100
AcDbLine
 10
354.0000000000001
 20
-313.8005350749281
 30
0.0
 11
494.9999999999993
 21
-313.8005350749281
 31
0.0
  0
INSERT
  5
D41C
330
D266
100
AcDbEntity
  8
30
  6
Continuous
 62
     0
370
    -2
100
AcDbBlockReference
  2
_OPEN
 10
352.0000000000001
 20
-313.8005350749281
 30
0.0
 41
2.0
 42
2.0
 43
2.0
 50
180.0
  0
INSERT
  5
D41D
330
D266
100
AcDbEntity
  8
30
  6
Continuous
 62
     0
370
    -2
100
AcDbBlockReference
  2
_OPEN
 10
496.9999999999995
 20
-313.8005350749281
 30
0.0
 41
2.0
 42
2.0
 43
2.0
  0
MTEXT
  5
D41E
330
D266
100
AcDbEntity
  8
30
  6
Continuous
 62
     0
100
AcDbMText
 10
424.4999999999998
 20
-307.8005350749281
 30
0.0
 40
6.0
 41
0.0
 71
     5
 72
     1
  1
\A1; 145 
 73
     1
 44
1.0
  0
POINT
  5
D41F
330
D266
100
AcDbEntity
  8
DEFPOINTS
  6
Continuous
 62
     0
100
AcDbPoint
 10
352.0000000000001
 20
5.000000000000124
 30
0.0
  0
POINT
  5
D420
330
D266
100
AcDbEntity
  8
DEFPOINTS
  6
Continuous
 62
     0
100
AcDbPoint
 10
496.9999999999995
 20
-136.9999999999996
 30
0.0
  0
POINT
  5
D421
330
D266
100
AcDbEntity
  8
DEFPOINTS
  6
Continuous
 62
     0
100
AcDbPoint
 10
496.9999999999995
 20
-313.8005350749281
 30
0.0
  0
ENDBLK
  5
D271
330
D266
100
AcDbEntity
  8
0
100
AcDbBlockEnd
  0
BLOCK
  5
D27D
330
D272
100
AcDbEntity
  8
0
100
AcDbBlockBegin
  2
*D57
 70
     1
 10
0.0
 20
0.0
 30
0.0
  3
*D57
  1

  0
LINE
  5
D39F
330
D272
100
AcDbEntity
  8
30
  6
Continuous
 62
     0
370
    -2
100
AcDbLine
 10
445.9999999999993
 20
-219.9999999999995
 30
0.0
 11
445.9999999999993
 21
-230.2660307105948
 31
0.0
  0
LINE
  5
D3A0
330
D272
100
AcDbEntity
  8
30
  6
Continuous
 62
     0
370
    -2
100
AcDbLine
 10
459.9999999999995
 20
-219.9999999999995
 30
0.0
 11
459.9999999999995
 21
-230.2660307105948
 31
0.0
  0
LINE
  5
D3A1
330
D272
100
AcDbEntity
  8
30
  6
Continuous
 62
     0
370
    -2
100
AcDbLine
 10
457.9999999999993
 20
-229.7660307105948
 30
0.0
 11
447.9999999999995
 21
-229.7660307105948
 31
0.0
  0
LINE
  5
D3A2
330
D272
100
AcDbEntity
  8
30
  6
Continuous
 62
     0
370
    -2
100
AcDbLine
 10
445.9999999999993
 20
-229.7660307105948
 30
0.0
 11
426.3999999999994
 21
-229.7660307105948
 31
0.0
  0
INSERT
  5
D3A3
330
D272
100
AcDbEntity
  8
30
  6
Continuous
 62
     0
370
    -2
100
AcDbBlockReference
  2
_OPEN
 10
459.9999999999995
 20
-229.7660307105948
 30
0.0
 41
2.0
 42
2.0
 43
2.0
  0
INSERT
  5
D3A4
330
D272
100
AcDbEntity
  8
30
  6
Continuous
 62
     0
370
    -2
100
AcDbBlockReference
  2
_OPEN
 10
445.9999999999993
 20
-229.7660307105948
 30
0.0
 41
2.0
 42
2.0
 43
2.0
 50
180.0
  0
MTEXT
  5
D3A5
330
D272
100
AcDbEntity
  8
30
  6
Continuous
 62
     0
100
AcDbMText
 10
435.1999999999994
 20
-223.7660307105948
 30
0.0
 40
6.0
 41
0.0
 71
     5
 72
     1
  1
\A1; 14 
 73
     1
 44
1.0
  0
POINT
  5
D3A6
330
D272
100
AcDbEntity
  8
DEFPOINTS
  6
Continuous
 62
     0
100
AcDbPoint
 10
445.9999999999993
 20
-216.9999999999995
 30
0.0
  0
POINT
  5
D3A7
330
D272
100
AcDbEntity
  8
DEFPOINTS
  6
Continuous
 62
     0
100
AcDbPoint
 10
459.9999999999995
 20
-216.9999999999995
 30
0.0
  0
POINT
  5
D3A8
330
D272
100
AcDbEntity
  8
DEFPOINTS
  6
Continuous
 62
     0
100
AcDbPoint
 10
459.9999999999995
 20
-229.7660307105948
 30
0.0
  0
ENDBLK
  5
D27E
330
D272
100
AcDbEntity
  8
0
100
AcDbBlockEnd
  0
BLOCK
  5
D289
330
D27F
100
AcDbEntity
  8
0
100
AcDbBlockBegin
  2
*D58
 70
     1
 10
0.0
 20
0.0
 30
0.0
  3
*D58
  1

  0
LINE
  5
D3A9
330
D27F
100
AcDbEntity
  8
30
  6
Continuous
 62
     0
370
    -2
100
AcDbLine
 10
459.9999999999995
 20
-219.9999999999995
 30
0.0
 11
459.9999999999995
 21
-230.2795442767015
 31
0.0
  0
LINE
  5
D3AA
330
D27F
100
AcDbEntity
  8
30
  6
Continuous
 62
     0
370
    -2
100
AcDbLine
 10
496.9999999999995
 20
-139.9999999999996
 30
0.0
 11
496.9999999999995
 21
-230.2795442767015
 31
0.0
  0
LINE
  5
D3AB
330
D27F
100
AcDbEntity
  8
30
  6
Continuous
 62
     0
370
    -2
100
AcDbLine
 10
461.9999999999993
 20
-229.7795442767013
 30
0.0
 11
494.9999999999993
 21
-229.7795442767013
 31
0.0
  0
INSERT
  5
D3AC
330
D27F
100
AcDbEntity
  8
30
  6
Continuous
 62
     0
370
    -2
100
AcDbBlockReference
  2
_OPEN
 10
459.9999999999995
 20
-229.7795442767013
 30
0.0
 41
2.0
 42
2.0
 43
2.0
 50
180.0
  0
INSERT
  5
D3AD
330
D27F
100
AcDbEntity
  8
30
  6
Continuous
 62
     0
370
    -2
100
AcDbBlockReference
  2
_OPEN
 10
496.9999999999995
 20
-229.7795442767013
 30
0.0
 41
2.0
 42
2.0
 43
2.0
  0
MTEXT
  5
D3AE
330
D27F
100
AcDbEntity
  8
30
  6
Continuous
 62
     0
100
AcDbMText
 10
478.4999999999993
 20
-223.7795442767015
 30
0.0
 40
6.0
 41
0.0
 71
     5
 72
     1
  1
\A1; 37 
 73
     1
 44
1.0
  0
POINT
  5
D3AF
330
D27F
100
AcDbEntity
  8
DEFPOINTS
  6
Continuous
 62
     0
100
AcDbPoint
 10
459.9999999999995
 20
-216.9999999999995
 30
0.0
  0
POINT
  5
D3B0
330
D27F
100
AcDbEntity
  8
DEFPOINTS
  6
Continuous
 62
     0
100
AcDbPoint
 10
496.9999999999995
 20
-136.9999999999996
 30
0.0
  0
POINT
  5
D3B1
330
D27F
100
AcDbEntity
  8
DEFPOINTS
  6
Continuous
 62
     0
100
AcDbPoint
 10
496.9999999999995
 20
-229.7795442767013
 30
0.0
  0
ENDBLK
  5
D28A
330
D27F
100
AcDbEntity
  8
0
100
AcDbBlockEnd
  0
BLOCK
  5
D297
330
D28B
100
AcDbEntity
  8
0
100
AcDbBlockBegin
  2
*D59
 70
     1
 10
0.0
 20
0.0
 30
0.0
  3
*D59
  1

  0
LINE
  5
D2FE
330
D28B
100
AcDbEntity
  8
30
  6
Continuous
 62
     0
370
    -2
100
AcDbLine
 10
450.9999999999995
 20
228.9999999999995
 30
0.0
 11
450.9999999999995
 21
253.7374589999995
 31
0.0
  0
LINE
  5
D2FF
330
D28B
100
AcDbEntity
  8
30
  6
Continuous
 62
     0
370
    -2
100
AcDbLine
 10
464.9999999999995
 20
228.9999999999995
 30
0.0
 11
464.9999999999995
 21
253.7374589999995
 31
0.0
  0
LINE
  5
D300
330
D28B
100
AcDbEntity
  8
30
  6
Continuous
 62
     0
370
    -2
100
AcDbLine
 10
448.9999999999993
 20
253.2374589999995
 30
0.0
 11
446.9999999999995
 21
253.2374589999995
 31
0.0
  0
LINE
  5
D301
330
D28B
100
AcDbEntity
  8
30
  6
Continuous
 62
     0
370
    -2
100
AcDbLine
 10
466.9999999999993
 20
253.2374589999995
 30
0.0
 11
468.9999999999995
 21
253.2374589999995
 31
0.0
  0
MTEXT
  5
D302
330
D28B
100
AcDbEntity
  8
30
  6
Continuous
 62
     0
100
AcDbMText
 10
458.3143098912546
 20
258.3192861611819
 30
0.0
 40
6.0
 41
0.0
 71
     5
 72
     1
  1
\A1;14 
 73
     1
 44
1.0
  0
LINE
  5
D303
330
D28B
100
AcDbEntity
  8
30
  6
Continuous
 62
     0
370
    -2
100
AcDbLine
 10
450.9999999999995
 20
253.2374589999995
 30
0.0
 11
464.9999999999995
 21
253.2374589999995
 31
0.0
  0
INSERT
  5
D304
330
D28B
100
AcDbEntity
  8
30
  6
Continuous
 62
     0
370
    -2
100
AcDbBlockReference
  2
_OPEN
 10
450.9999999999995
 20
253.2374589999995
 30
0.0
 41
2.0
 42
2.0
 43
2.0
  0
INSERT
  5
D305
330
D28B
100
AcDbEntity
  8
30
  6
Continuous
 62
     0
370
    -2
100
AcDbBlockReference
  2
_OPEN
 10
464.9999999999995
 20
253.2374589999995
 30
0.0
 41
2.0
 42
2.0
 43
2.0
 50
180.0
  0
POINT
  5
D306
330
D28B
100
AcDbEntity
  8
DEFPOINTS
  6
Continuous
 62
     0
100
AcDbPoint
 10
450.9999999999995
 20
225.9999999999995
 30
0.0
  0
POINT
  5
D307
330
D28B
100
AcDbEntity
  8
DEFPOINTS
  6
Continuous
 62
     0
100
AcDbPoint
 10
464.9999999999995
 20
225.9999999999995
 30
0.0
  0
POINT
  5
D308
330
D28B
100
AcDbEntity
  8
DEFPOINTS
  6
Continuous
 62
     0
100
AcDbPoint
 10
464.9999999999995
 20
253.2374589999995
 30
0.0
  0
ENDBLK
  5
D298
330
D28B
100
AcDbEntity
  8
0
100
AcDbBlockEnd
  0
ENDSEC
  0
SECTION
  2
ENTITIES
  0
MTEXT
  5
BF3
330
1E
100
AcDbEntity
  8
24
  6
Continuous
100
AcDbMText
 10
-1122.485879739977
 20
176.0077842646156
 30
0.0
 40
3.0
 41
0.0
 71
     1
 72
     1
  1
\A1;
 73
     1
 44
1.0
  0
MTEXT
  5
5C78
330
1E
100
AcDbEntity
  8
30
  6
Continuous
100
AcDbMText
 10
-1101.13821134667
 20
88.65804140987993
 30
0.0
 40
4.0
 41
0.0
 71
     9
 72
     1
  1

 73
     1
 44
1.0
  0
MTEXT
  5
6200
330
1E
100
AcDbEntity
  8
30
  6
Continuous
100
AcDbMText
 10
-1102.838969582035
 20
90.89784187598226
 30
0.0
 40
4.0
 41
0.0
 71
     9
 72
     1
  1

 73
     1
 44
1.0
  0
MTEXT
  5
7CA7
330
1E
100
AcDbEntity
  8
30
  6
Continuous
100
AcDbMText
 10
-1052.599328545124
 20
139.1817181806283
 30
0.0
 40
4.0
 41
0.0
 71
     9
 72
     1
  1
\A1;
 73
     1
 44
1.0
  0
MTEXT
  5
7CA9
330
1E
100
AcDbEntity
  8
30
  6
Continuous
100
AcDbMText
 10
-1045.859089195481
 20
136.4688200993745
 30
0.0
 40
4.0
 41
0.0
 71
     9
 72
     1
  1
\A1;
 73
     1
 44
1.0
  0
MTEXT
  5
8D78
330
1E
100
AcDbEntity
  8
30
  6
Continuous
100
AcDbMText
 10
-1491.733190457684
 20
136.4688200993745
 30
0.0
 40
4.0
 41
0.0
 71
     9
 72
     1
  1
\A1;
 73
     1
 44
1.0
  0
LINE
  5
9594
330
1E
100
AcDbEntity
  8
16
100
AcDbLine
 10
0.0
 20
-221.9704872904738
 30
0.0
 11
0.0
 21
231.0295127095251
 31
0.0
  0
DIMENSION
  5
9599
330
1E
100
AcDbEntity
  8
30
  6
Continuous
100
AcDbDimension
  2
*D10
 10
0.0000000000004516
 20
-247.0663622904738
 30
0.0
 11
-34.99999999999953
 21
-241.0663622904738
 31
0.0
 70
    32
  1
 <> 
 71
     5
 42
70.0
  3
STANDARD1
100
AcDbAlignedDimension
 13
-69.99999999999954
 23
-221.9704872904738
 33
0.0
 14
0.0000000000004547
 24
-196.9704872904739
 34
0.0
100
AcDbRotatedDimension
  0
DIMENSION
  5
959A
330
1E
100
AcDbEntity
  8
30
  6
Continuous
100
AcDbDimension
  2
*D11
 10
70.0
 20
-247.0663622904738
 30
0.0
 11
35.0
 21
-241.0663622904738
 31
0.0
 70
    32
  1
 <> 
 71
     5
 42
70.0
  3
STANDARD1
100
AcDbAlignedDimension
 13
0.0
 23
-211.970487290474
 33
0.0
 14
70.0
 24
-221.9704872904738
 34
0.0
100
AcDbRotatedDimension
  0
DIMENSION
  5
959B
330
1E
100
AcDbEntity
  8
30
  6
Continuous
100
AcDbDimension
  2
*D12
 10
139.9935351126159
 20
-247.1433503083983
 30
0.0
 11
104.9967675563079
 21
-241.1433503083983
 31
0.0
 70
    32
  1
 <> 
 71
     5
 42
69.99353511261592
  3
STANDARD1
100
AcDbAlignedDimension
 13
70.0
 23
-221.9704872904738
 33
0.0
 14
139.9935351126159
 24
-229.8828667235274
 34
0.0
100
AcDbRotatedDimension
  0
DIMENSION
  5
959C
330
1E
100
AcDbEntity
  8
30
  6
Continuous
100
AcDbDimension
  2
*D13
 10
0.0000000000004498
 20
-277.0663622904736
 30
0.0
 11
-52.49999999999953
 21
-271.0663622904736
 31
0.0
 70
    32
  1
 <> 
 71
     5
 42
104.9999999999996
  3
STANDARD1
100
AcDbAlignedDimension
 13
-104.9999999999994
 23
-136.9704872904738
 33
0.0
 14
0.0000000000004547
 24
-196.9704872904739
 34
0.0
100
AcDbRotatedDimension
  0
DIMENSION
  5
959D
330
1E
100
AcDbEntity
  8
30
  6
Continuous
100
AcDbDimension
  2
*D14
 10
174.9935351126158
 20
-277.1433503083981
 30
0.0
 11
87.49676755630817
 21
-271.1433503083981
 31
0.0
 70
    32
  1
 <> 
 71
     5
 42
174.9935351126154
  3
STANDARD1
100
AcDbAlignedDimension
 13
0.0000000000004547
 23
-196.9704872904739
 33
0.0
 14
174.9935351126158
 24
-137.0474753083985
 34
0.0
100
AcDbRotatedDimension
  0
DIMENSION
  5
959E
330
1E
100
AcDbEntity
  8
30
  6
Continuous
100
AcDbDimension
  2
*D15
 10
174.9935351126158
 20
-307.143350308398
 30
0.0
 11
34.99676755630817
 21
-301.1433503083981
 31
0.0
 70
    32
  1
 <> 
 71
     5
 42
279.9935351126153
  3
STANDARD1
100
AcDbAlignedDimension
 13
-104.9999999999994
 23
-136.9704872904738
 33
0.0
 14
174.9935351126158
 24
-137.0474753083985
 34
0.0
100
AcDbRotatedDimension
  0
DIMENSION
  5
95A0
330
1E
100
AcDbEntity
  8
30
  6
Continuous
100
AcDbDimension
  2
*D16
 10
198.428729362358
 20
-197.0474753083983
 30
0.0
 11
198.4287293623583
 21
-207.9525246916014
 31
0.0
 70
   160
  1
 <> 
 71
     0
 72
     0
 41
0.0
 42
15.00000000000011
  3
STANDARD1
100
AcDbAlignedDimension
 13
164.9935351126155
 23
-212.0474753083985
 33
0.0
 14
144.9935351126155
 24
-197.0474753083983
 34
0.0
 50
90.0
100
AcDbRotatedDimension
  0
DIMENSION
  5
95B0
330
1E
100
AcDbEntity
  8
30
  6
Continuous
100
AcDbDimension
  2
*D17
 10
-104.9999999999994
 20
251.029512709525
 30
0.0
 11
-110.9999999999994
 21
196.0295127095251
 31
0.0
 70
    32
  1
 <> 
 71
     0
 72
     0
 41
0.0
 42
109.9999999999996
  3
STANDARD1
100
AcDbAlignedDimension
 13
-104.9999999999994
 23
141.0295127095253
 33
0.0
 14
-41.99999999999977
 24
251.029512709525
 34
0.0
 50
90.0
100
AcDbRotatedDimension
  0
DIMENSION
  5
9656
330
1E
100
AcDbEntity
  8
30
  6
Continuous
100
AcDbDimension
  2
*D1
 10
198.4287293623583
 20
-165.0
 30
0.0
 11
192.4287293623583
 21
-181.0237376541991
 31
0.0
 70
    32
  1
 <> 
 71
     0
 72
     0
 41
0.0
 42
32.04747530839842
  3
STANDARD1
100
AcDbAlignedDimension
 13
144.9935351126155
 23
-197.0474753083983
 33
0.0
 14
149.5
 24
-164.9999999999999
 34
0.0
 50
90.0
100
AcDbRotatedDimension
  0
DIMENSION
  5
9657
330
1E
100
AcDbEntity
  8
30
  6
Continuous
100
AcDbDimension
  2
*D2
 10
198.428729362358
 20
-157.0
 30
0.0
 11
193.0
 21
-163.0
 31
0.0
 70
   160
  1
 <> 
 71
     0
 72
     0
 41
0.0
 42
8.0
  3
STANDARD1
100
AcDbAlignedDimension
 13
149.5
 23
-164.9999999999999
 33
0.0
 14
149.5
 24
-156.9999999999999
 34
0.0
 50
90.0
100
AcDbRotatedDimension
1001
ACAD
1000
DSTYLE
1002
{
1070
   172
1070
     1
1070
   279
1070
     2
1002
}
  0
DIMENSION
  5
9658
330
1E
100
AcDbEntity
  8
30
  6
Continuous
100
AcDbDimension
  2
*D3
 10
198.4287293623583
 20
-132.0474753083987
 30
0.0
 11
192.4287293623583
 21
-144.5237376541991
 31
0.0
 70
    32
  1
 <> 
 71
     0
 72
     0
 41
0.0
 42
24.95252469160126
  3
STANDARD1
100
AcDbAlignedDimension
 13
149.5
 23
-156.9999999999999
 33
0.0
 14
179.9935351126155
 24
-132.0474753083987
 34
0.0
 50
90.0
100
AcDbRotatedDimension
  0
DIMENSION
  5
9659
330
1E
100
AcDbEntity
  8
30
  6
Continuous
100
AcDbDimension
  2
*D4
 10
-143.5336879211943
 20
-0.0449089858315539
 30
0.0
 11
-149.5336879211943
 21
27.70380785288465
 31
0.0
 70
    32
  1
 <> 
 71
     0
 72
     0
 41
0.0
 42
55.49743367743246
  3
STANDARD1
100
AcDbAlignedDimension
 13
-104.9999999999994
 23
55.45252469160089
 33
0.0
 14
-104.9999999999994
 24
-0.0449089858315648
 34
0.0
 50
90.0
100
AcDbRotatedDimension
  0
DIMENSION
  5
965A
330
1E
100
AcDbEntity
  8
30
  6
Continuous
100
AcDbDimension
  2
*D5
 10
-143.5336879211943
 20
-46.5474753083988
 30
0.0
 11
-149.5336879211943
 21
-23.29619214711519
 31
0.0
 70
    32
  1
 <> 
 71
     0
 72
     0
 41
0.0
 42
46.50256632256723
  3
STANDARD1
100
AcDbAlignedDimension
 13
-104.9999999999994
 23
-0.0449089858315648
 33
0.0
 14
-104.9999999999994
 24
-46.5474753083988
 34
0.0
 50
90.0
100
AcDbRotatedDimension
  0
DIMENSION
  5
965B
330
1E
100
AcDbEntity
  8
30
  6
Continuous
100
AcDbDimension
  2
*D6
 10
-123.4351942497418
 20
-44.97048729047425
 30
0.0
 11
-129.4351942497418
 21
0.0295127095255919
 31
0.0
 70
    32
  1
 <> 
 71
     0
 72
     0
 41
0.0
 42
89.99999999999973
  3
STANDARD1
100
AcDbAlignedDimension
 13
-15.20646488738384
 23
45.02951270952544
 33
0.0
 14
-15.20646488738384
 24
-44.97048729047429
 34
0.0
 50
90.0
100
AcDbRotatedDimension
  0
LINE
  5
975E
330
1E
100
AcDbEntity
  8
16
100
AcDbLine
 10
184.999999999999
 20
-499.5708385812683
 30
0.0
 11
-114.5999999999994
 21
-499.5708385812683
 31
0.0
  0
LINE
  5
9781
330
1E
100
AcDbEntity
  8
16
100
AcDbLine
 10
0.0
 20
-641.5708385812681
 30
0.0
 11
0.0
 21
-348.5708385812686
 31
0.0
  0
DIMENSION
  5
9785
330
1E
100
AcDbEntity
  8
30
  6
Continuous
100
AcDbDimension
  2
*D7
 10
34.99999999999909
 20
-671.6667135812681
 30
0.0
 11
-0.0000000000006782
 21
-665.6667135812681
 31
0.0
 70
    32
  1
 <> 
 71
     5
 42
69.99999999999954
  3
STANDARD1
100
AcDbAlignedDimension
 13
-35.00000000000044
 23
-621.5708385812681
 33
0.0
 14
34.99999999999909
 24
-621.5708385812681
 34
0.0
100
AcDbRotatedDimension
  0
LINE
  5
9786
330
1E
100
AcDbEntity
  8
12
  6
Continuous
 62
     3
100
AcDbLine
 10
-41.00000000000045
 20
-616.5708385812681
 30
0.0
 11
-29.0
 21
-616.5708385812681
 31
0.0
  0
LINE
  5
9787
330
1E
100
AcDbEntity
  8
12
  6
Continuous
 62
     3
100
AcDbLine
 10
-35.00000000000091
 20
-610.5708385812678
 30
0.0
 11
-35.00000000000091
 21
-622.5708385812681
 31
0.0
  0
CIRCLE
  5
9788
330
1E
100
AcDbEntity
  8
12
  6
Continuous
 62
     3
100
AcDbCircle
 10
-35.00000000000091
 20
-616.5708385812681
 30
0.0
 40
3.999999999999986
  0
LINE
  5
9789
330
1E
100
AcDbEntity
  8
12
  6
Continuous
 62
     3
100
AcDbLine
 10
34.99999999999953
 20
-610.5708385812678
 30
0.0
 11
34.99999999999953
 21
-622.5708385812681
 31
0.0
  0
CIRCLE
  5
978A
330
1E
100
AcDbEntity
  8
12
  6
Continuous
 62
     3
100
AcDbCircle
 10
34.99999999999953
 20
-616.5708385812681
 30
0.0
 40
3.999999999999986
  0
DIMENSION
  5
978B
330
1E
100
AcDbEntity
  8
30
  6
Continuous
100
AcDbDimension
  2
*D8
 10
37.87922500000013
 20
-619.3475385812687
 30
0.0
 11
21.24154995417029
 21
-605.017438537069
 31
0.0
 70
    35
 71
     5
 42
7.999999872655338
  3
STANDARD1
100
AcDbDiametricDimension
 15
32.12077500000146
 25
-613.7941385812687
 35
0.0
 40
0.0
  0
LINE
  5
978C
330
1E
100
AcDbEntity
  8
12
  6
Continuous
 62
     3
100
AcDbLine
 10
28.99999999999954
 20
-616.5708385812681
 30
0.0
 11
41.0
 21
-616.5708385812681
 31
0.0
  0
LINE
  5
978D
330
1E
100
AcDbEntity
  8
12
  6
Continuous
 62
     3
100
AcDbLine
 10
-41.00000000000045
 20
-373.5708385812686
 30
0.0
 11
-29.0
 21
-373.5708385812686
 31
0.0
  0
LINE
  5
978E
330
1E
100
AcDbEntity
  8
12
  6
Continuous
 62
     3
100
AcDbLine
 10
-35.00000000000091
 20
-367.5708385812686
 30
0.0
 11
-35.00000000000091
 21
-379.5708385812686
 31
0.0
  0
CIRCLE
  5
978F
330
1E
100
AcDbEntity
  8
12
  6
Continuous
 62
     3
100
AcDbCircle
 10
-35.00000000000091
 20
-373.5708385812686
 30
0.0
 40
3.999999999999986
  0
LINE
  5
9790
330
1E
100
AcDbEntity
  8
12
  6
Continuous
 62
     3
100
AcDbLine
 10
34.99999999999953
 20
-367.5708385812686
 30
0.0
 11
34.99999999999953
 21
-379.5708385812686
 31
0.0
  0
LINE
  5
9791
330
1E
100
AcDbEntity
  8
12
  6
Continuous
 62
     3
100
AcDbLine
 10
28.99999999999954
 20
-373.5708385812686
 30
0.0
 11
41.0
 21
-373.5708385812686
 31
0.0
  0
CIRCLE
  5
9792
330
1E
100
AcDbEntity
  8
12
  6
Continuous
 62
     3
100
AcDbCircle
 10
34.99999999999953
 20
-373.5708385812686
 30
0.0
 40
3.999999999999986
  0
LINE
  5
97E7
330
1E
100
AcDbEntity
  8
16
100
AcDbLine
 10
400.0
 20
-641.570838581268
 30
0.0
 11
400.0
 21
-301.1713678348832
 31
0.0
  0
LINE
  5
97EA
330
1E
100
AcDbEntity
  8
16
100
AcDbLine
 10
584.9999999999994
 20
-499.5708385812683
 30
0.0
 11
285.3999999999996
 21
-499.5708385812683
 31
0.0
  0
DIMENSION
  5
97EB
330
1E
100
AcDbEntity
  8
30
  6
Continuous
100
AcDbDimension
  2
*D9
 10
266.6460999999999
 20
-545.5708385812681
 30
0.0
 11
260.6460999999999
 21
-499.5708385812681
 31
0.0
 70
    32
  1
 <> 
 71
     0
 72
     0
 41
0.0
 42
91.99999999999972
  3
STANDARD1
100
AcDbAlignedDimension
 13
320.1999999999998
 23
-453.5708385812683
 33
0.0
 14
320.1999999999998
 24
-545.5708385812681
 34
0.0
 50
90.0
100
AcDbRotatedDimension
  0
LWPOLYLINE
  5
9F23
330
1E
100
AcDbEntity
  8
11
 48
2.0
100
AcDbPolyline
 90
        9
 70
     1
 43
0.0
 10
480.1999999999998
 20
-453.5708385812683
 10
320.1999999999998
 20
-453.5708385812683
 42
0.4142135623730951
 10
314.1999999999999
 20
-459.5708385812684
 10
314.1999999999999
 20
-539.5708385812683
 42
0.4142135623730966
 10
320.1999999999998
 20
-545.5708385812681
 10
480.1999999999998
 20
-545.5708385812681
 42
0.4142135623730673
 10
486.2000000000001
 20
-539.5708385812683
 10
486.2000000000001
 20
-459.5708385812684
 42
0.4142135623731171
 10
480.1999999999998
 20
-453.5708385812683
  0
LWPOLYLINE
  5
9F2F
330
1E
100
AcDbEntity
  8
18
  6
DIVIDE
100
AcDbPolyline
 90
        4
 70
     1
 43
0.0
 10
295.4000000000005
 20
-358.5708385812686
 10
574.9999999999994
 20
-358.5708385812686
 10
574.9999999999994
 20
-631.570838581268
 10
295.4000000000005
 20
-631.570838581268
  0
LWPOLYLINE
  5
9F3A
330
1E
100
AcDbEntity
  8
18
  6
DIVIDE
100
AcDbPolyline
 90
        4
 70
     1
 43
0.0
 10
-104.5999999999994
 20
-358.5708385812687
 10
174.9999999999995
 20
-358.5708385812687
 10
174.9999999999995
 20
-631.5708385812683
 10
-104.5999999999994
 20
-631.5708385812683
  0
DIMENSION
  5
B26F
330
1E
100
AcDbEntity
  8
30
  6
Continuous
100
AcDbDimension
  2
*D18
 10
-178.1134758423905
 20
-132.0474753083987
 30
0.0
 11
-184.1134758423905
 21
-172.0474753083983
 31
0.0
 70
    32
  1
 <> 
 71
     0
 72
     0
 41
0.0
 42
79.9999999999998
  3
STANDARD1
100
AcDbAlignedDimension
 13
-94.99999999999932
 23
-212.0474753083985
 33
0.0
 14
-109.9999999999992
 24
-132.0474753083987
 34
0.0
 50
90.0
100
AcDbRotatedDimension
  0
DIMENSION
  5
B270
330
1E
100
AcDbEntity
  8
30
  6
Continuous
100
AcDbDimension
  2
*D20
 10
-161.6993509957453
 20
-0.0474753083990495
 30
0.0
 11
-167.6993509957453
 21
70.4525246916008
 31
0.0
 70
    32
  1
 <> 
 71
     0
 72
     0
 41
0.0
 42
140.9999999999996
  3
STANDARD1
100
AcDbAlignedDimension
 13
-109.9999999999992
 23
140.9525246916006
 33
0.0
 14
-119.999999999999
 24
-0.0474753083990613
 34
0.0
 50
90.0
100
AcDbRotatedDimension
  0
DIMENSION
  5
B271
330
1E
100
AcDbEntity
  8
30
  6
Continuous
100
AcDbDimension
  2
*D19
 10
-178.1134758423905
 20
140.9525246916006
 30
0.0
 11
-184.1134758423905
 21
4.452524691600967
 31
0.0
 70
    32
  1
 <> 
 71
     0
 72
     0
 41
0.0
 42
272.9999999999993
  3
STANDARD1
100
AcDbAlignedDimension
 13
-109.9999999999992
 23
-132.0474753083987
 33
0.0
 14
-109.9999999999992
 24
140.9525246916006
 34
0.0
 50
90.0
100
AcDbRotatedDimension
  0
DIMENSION
  5
B272
330
1E
100
AcDbEntity
  8
30
  6
Continuous
100
AcDbDimension
  2
*D21
 10
-161.6993509957453
 20
-132.0474753083987
 30
0.0
 11
-167.699350995745
 21
-66.0474753083989
 31
0.0
 70
    32
  1
 <> 
 71
     0
 72
     0
 41
0.0
 42
131.9999999999996
  3
STANDARD1
100
AcDbAlignedDimension
 13
-119.999999999999
 23
-0.0474753083990613
 33
0.0
 14
-109.9999999999992
 24
-132.0474753083987
 34
0.0
 50
90.0
100
AcDbRotatedDimension
  0
DIMENSION
  5
B273
330
1E
100
AcDbEntity
  8
30
  6
Continuous
100
AcDbDimension
  2
*D22
 10
-178.1134758423905
 20
220.9525246916004
 30
0.0
 11
-184.1134758423905
 21
180.9525246916004
 31
0.0
 70
    32
  1
 <> 
 71
     0
 72
     0
 41
0.0
 42
79.99999999999976
  3
STANDARD1
100
AcDbAlignedDimension
 13
-109.9999999999992
 23
140.9525246916006
 33
0.0
 14
-94.99999999999932
 24
220.9525246916004
 34
0.0
 50
90.0
100
AcDbRotatedDimension
  0
LINE
  5
B3DB
330
1E
100
AcDbEntity
  8
16
100
AcDbLine
 10
0.0
 20
422.3526745713753
 30
0.0
 11
0.0
 21
245.9526745713758
 31
0.0
  0
LINE
  5
B63B
330
1E
100
AcDbEntity
  8
10
  6
Continuous
100
AcDbLine
 10
-105.0
 20
408.3526745713752
 30
0.0
 11
-105.0
 21
311.3526745713758
 31
0.0
  0
LINE
  5
B63D
330
1E
100
AcDbEntity
  8
10
  6
Continuous
100
AcDbLine
 10
-105.0
 20
311.3526745713757
 30
0.0
 11
-105.0
 21
308.8526745713754
 31
0.0
  0
LINE
  5
B63E
330
1E
100
AcDbEntity
  8
10
  6
Continuous
100
AcDbLine
 10
-105.0
 20
308.8526745713754
 30
0.0
 11
-84.60000000000013
 21
308.8526745713754
 31
0.0
  0
LINE
  5
B642
330
1E
100
AcDbEntity
  8
10
  6
Continuous
100
AcDbLine
 10
-84.60000000000013
 20
308.8526745713754
 30
0.0
 11
174.9935351126155
 21
308.8526745713753
 31
0.0
  0
LINE
  5
B643
330
1E
100
AcDbEntity
  8
10
  6
Continuous
100
AcDbLine
 10
174.9935351126155
 20
308.8526745713753
 30
0.0
 11
174.9935351126155
 21
311.3526745713755
 31
0.0
  0
LINE
  5
B644
330
1E
100
AcDbEntity
  8
10
  6
Continuous
100
AcDbLine
 10
-105.0
 20
311.3526745713758
 30
0.0
 11
174.9935351126155
 21
311.3526745713755
 31
0.0
  0
LINE
  5
B645
330
1E
100
AcDbEntity
  8
10
  6
Continuous
100
AcDbLine
 10
174.9935351126155
 20
311.3526745713755
 30
0.0
 11
174.9935351126155
 21
408.3526745713751
 31
0.0
  0
LINE
  5
B646
330
1E
100
AcDbEntity
  8
10
  6
Continuous
100
AcDbLine
 10
174.9935351126155
 20
408.3526745713751
 30
0.0
 11
-105.0
 21
408.3526745713752
 31
0.0
  0
LWPOLYLINE
  5
B66C
330
1E
100
AcDbEntity
  8
10
  6
Continuous
100
AcDbPolyline
 90
        4
 70
     1
 43
0.0
 10
-49.99999999999954
 20
360.3526745713752
 10
-89.99999999999955
 20
360.3526745713752
 10
-89.99999999999955
 20
374.3526745713753
 10
-49.99999999999954
 20
374.3526745713753
  0
LWPOLYLINE
  5
B66E
330
1E
100
AcDbEntity
  8
10
  6
Continuous
100
AcDbPolyline
 90
        4
 70
     1
 43
0.0
 10
20.00000000000022
 20
360.3526745713752
 10
-19.99999999999976
 20
360.3526745713752
 10
-19.99999999999976
 20
374.3526745713753
 10
20.00000000000022
 20
374.3526745713753
  0
LWPOLYLINE
  5
B66F
330
1E
100
AcDbEntity
  8
10
  6
Continuous
100
AcDbPolyline
 90
        4
 70
     1
 43
0.0
 10
90.0
 20
360.3526745713752
 10
50.0
 20
360.3526745713752
 10
50.0
 20
374.3526745713753
 10
90.0
 20
374.3526745713753
  0
LWPOLYLINE
  5
B670
330
1E
100
AcDbEntity
  8
10
  6
Continuous
100
AcDbPolyline
 90
        4
 70
     1
 43
0.0
 10
159.9935351126155
 20
360.3526745713752
 10
119.9935351126157
 20
360.3526745713752
 10
119.9935351126157
 20
374.3526745713753
 10
159.9935351126155
 20
374.3526745713753
  0
DIMENSION
  5
B671
330
1E
100
AcDbEntity
  8
30
  6
Continuous
100
AcDbDimension
  2
*D27
 10
212.1608617843235
 20
374.3526745713753
 30
0.0
 11
223.1719838526486
 21
387.9328973837908
 31
0.0
 70
   160
  1
ON SIDE 32\POFF SIDE 37
 71
     5
 42
33.99999999999983
  3
STANDARD1
100
AcDbAlignedDimension
 13
177.7872924674434
 23
408.3526745713751
 33
0.0
 14
162.7872924674434
 24
374.3526745713753
 34
0.0
 50
90.0
100
AcDbRotatedDimension
1001
ACAD
1000
DSTYLE
1002
{
1070
   172
1070
     1
1070
   279
1070
     2
1002
}
  0
DIMENSION
  5
B672
330
1E
100
AcDbEntity
  8
30
  6
Continuous
100
AcDbDimension
  2
*D23
 10
0.0000000000002307
 20
428.5085085369582
 30
0.0
 11
-34.99999999999966
 21
434.5085085369581
 31
0.0
 70
    32
 71
     5
 42
69.99999999999977
  3
STANDARD1
100
AcDbAlignedDimension
 13
-69.99999999999954
 23
374.3526745713753
 33
0.0
 14
0.0000000000002274
 24
374.3526745713753
 34
0.0
100
AcDbRotatedDimension
  0
DIMENSION
  5
B673
330
1E
100
AcDbEntity
  8
30
  6
Continuous
100
AcDbDimension
  2
*D24
 10
-69.99999999999954
 20
428.5085085369582
 30
0.0
 11
-87.49999999999976
 21
434.5085085369581
 31
0.0
 70
    32
 71
     5
 42
35.00000000000044
  3
STANDARD1
100
AcDbAlignedDimension
 13
-105.0
 23
408.3526745713752
 33
0.0
 14
-69.99999999999954
 24
374.3526745713753
 34
0.0
100
AcDbRotatedDimension
  0
DIMENSION
  5
B674
330
1E
100
AcDbEntity
  8
30
  6
Continuous
100
AcDbDimension
  2
*D25
 10
70.0
 20
428.5085085369582
 30
0.0
 11
35.0000000000001
 21
434.5085085369581
 31
0.0
 70
    32
 71
     5
 42
69.99999999999977
  3
STANDARD1
100
AcDbAlignedDimension
 13
0.0000000000002274
 23
374.3526745713753
 33
0.0
 14
70.0
 24
374.3526745713753
 34
0.0
100
AcDbRotatedDimension
  0
DIMENSION
  5
B676
330
1E
100
AcDbEntity
  8
30
  6
Continuous
100
AcDbDimension
  2
*D26
 10
174.9935351126155
 20
428.5085085369582
 30
0.0
 11
122.4967675563076
 21
434.5085085369581
 31
0.0
 70
    32
 71
     5
 42
104.9935351126155
  3
STANDARD1
100
AcDbAlignedDimension
 13
70.0
 23
374.3526745713753
 33
0.0
 14
174.9935351126155
 24
408.3526745713751
 34
0.0
100
AcDbRotatedDimension
  0
DIMENSION
  5
B797
330
1E
100
AcDbEntity
  8
30
  6
Continuous
100
AcDbDimension
  2
*D28
 10
196.9636107915585
 20
360.3526745713752
 30
0.0
 11
196.9636107915584
 21
367.5620434037105
 31
0.0
 70
   160
 71
     5
 42
14.0
  3
STANDARD1
100
AcDbAlignedDimension
 13
159.9935351126155
 23
374.3526745713753
 33
0.0
 14
159.9935351126155
 24
360.3526745713752
 34
0.0
 50
90.0
100
AcDbRotatedDimension
  0
DIMENSION
  5
B9F5
330
1E
100
AcDbEntity
  8
30
  6
Continuous
100
AcDbDimension
  2
*D30
 10
-126.4827805278387
 20
-499.5708385812683
 30
0.0
 11
-132.4827805278383
 21
-558.0708385812681
 31
0.0
 70
    32
  1
 <> 
 71
     0
 72
     0
 41
0.0
 42
116.9999999999997
  3
STANDARD1
100
AcDbAlignedDimension
 13
-41.20000000000027
 23
-616.5708385812681
 33
0.0
 14
-114.7999999999997
 24
-499.5708385812683
 34
0.0
 50
90.0
100
AcDbRotatedDimension
  0
DIMENSION
  5
B9F6
330
1E
100
AcDbEntity
  8
30
  6
Continuous
100
AcDbDimension
  2
*D29
 10
-126.4827805278387
 20
-373.5708385812686
 30
0.0
 11
-132.4827805278383
 21
-436.5708385812683
 31
0.0
 70
    32
  1
 <> 
 71
     0
 72
     0
 41
0.0
 42
125.9999999999997
  3
STANDARD1
100
AcDbAlignedDimension
 13
-112.3288805278388
 23
-499.5708385812683
 33
0.0
 14
-41.20000000000027
 24
-373.5708385812686
 34
0.0
 50
90.0
100
AcDbRotatedDimension
  0
MTEXT
  5
C95A
330
1E
100
AcDbEntity
  8
19
  6
Continuous
100
AcDbMText
 10
367.3680944425938
 20
340.2900869328451
 30
0.0
 40
8.0
 41
125.1279999999999
 71
     1
 72
     5
  1
S1000-SE 4P FC\PS1000-NE 4P FC\PS1000-NN 4P FC
  7
STANDARD1
 73
     1
 44
1.0
  0
LINE
  5
CF58
330
1E
100
AcDbEntity
  8
16
100
AcDbLine
 10
185.0
 20
0.0
 30
0.0
 11
-115.0
 21
0.0
 31
0.0
  0
LINE
  5
CF5B
330
1E
100
AcDbEntity
  8
17
  6
DASHDOT
100
AcDbLine
 10
140.0
 20
-221.9999999999999
 30
0.0
 11
140.0
 21
-98.49999999999994
 31
0.0
  0
LINE
  5
CF5C
330
1E
100
AcDbEntity
  8
17
  6
DASHDOT
100
AcDbLine
 10
70.0
 20
-221.9999999999999
 30
0.0
 11
70.0
 21
-98.49999999999994
 31
0.0
  0
LINE
  5
CF5D
330
1E
100
AcDbEntity
  8
17
  6
DASHDOT
100
AcDbLine
 10
-69.99999999999977
 20
-221.9999999999999
 30
0.0
 11
-69.99999999999977
 21
-98.49999999999994
 31
0.0
  0
LWPOLYLINE
  5
CF5F
330
1E
100
AcDbEntity
  8
10
  6
Continuous
100
AcDbPolyline
 90
        4
 70
     0
 43
0.0
 10
-92.49999999999976
 20
-131.9999999999999
 10
-92.49999999999976
 20
-211.9999999999999
 10
-47.49999999999977
 20
-211.9999999999999
 10
-47.49999999999977
 20
-131.9999999999999
  0
LWPOLYLINE
  5
CF60
330
1E
100
AcDbEntity
  8
10
  6
Continuous
100
AcDbPolyline
 90
        4
 70
     0
 43
0.0
 10
-22.5
 20
-131.9999999999999
 10
-22.5
 20
-211.9999999999999
 10
22.5
 20
-211.9999999999999
 10
22.5
 20
-131.9999999999999
  0
LWPOLYLINE
  5
CF61
330
1E
100
AcDbEntity
  8
10
  6
Continuous
100
AcDbPolyline
 90
        4
 70
     0
 43
0.0
 10
47.5
 20
-131.9999999999999
 10
47.5
 20
-211.9999999999999
 10
92.5
 20
-211.9999999999999
 10
92.5
 20
-131.9999999999999
  0
LWPOLYLINE
  5
CF62
330
1E
100
AcDbEntity
  8
10
  6
Continuous
100
AcDbPolyline
 90
        4
 70
     0
 43
0.0
 10
117.5
 20
-131.9999999999999
 10
117.5
 20
-211.9999999999999
 10
162.5
 20
-211.9999999999999
 10
162.5
 20
-131.9999999999999
  0
DIMENSION
  5
CF65
330
1E
100
AcDbEntity
  8
30
  6
Continuous
100
AcDbDimension
  2
*D44
 10
162.5
 20
-232.0
 30
0.0
 11
140.0
 21
-229.0
 31
0.0
 70
    32
 71
     5
 42
45.0
  3
STANDARD
100
AcDbAlignedDimension
 13
117.5
 23
-211.9999999999999
 33
0.0
 14
162.5
 24
-211.9999999999999
 34
0.0
100
AcDbRotatedDimension
1001
ACAD
1000
DSTYLE
1002
{
1070
    79
1070
     3
1002
}
  0
CIRCLE
  5
CF68
330
1E
100
AcDbEntity
  8
24
  6
CONTINOUS
100
AcDbCircle
 10
69.99999999999977
 20
-196.9999999999999
 30
0.0
 40
6.499999999999997
210
0.0
220
0.0
230
-1.0
  0
LINE
  5
CF69
330
1E
100
AcDbEntity
  8
17
  6
DASHDOT
100
AcDbLine
 10
-79.49999999999976
 20
-196.9999999999999
 30
0.0
 11
-60.5
 21
-196.9999999999999
 31
0.0
  0
CIRCLE
  5
CF6A
330
1E
100
AcDbEntity
  8
24
  6
CONTINOUS
100
AcDbCircle
 10
0.0
 20
-196.9999999999999
 30
0.0
 40
6.499999999999997
210
0.0
220
0.0
230
-1.0
  0
LINE
  5
CF6B
330
1E
100
AcDbEntity
  8
17
  6
DASHDOT
100
AcDbLine
 10
-9.5
 20
-196.9999999999999
 30
0.0
 11
9.5
 21
-196.9999999999999
 31
0.0
  0
LWPOLYLINE
  5
CF6C
330
1E
100
AcDbEntity
  8
24
  6
CONTINOUS
100
AcDbPolyline
 90
        5
 70
     1
 43
0.0
 10
-76.49999999999976
 20
-156.9999999999999
 10
-76.49999999999976
 20
-164.9999999999999
 42
0.9999999999999998
 10
-63.49999999999977
 20
-164.9999999999999
 10
-63.49999999999977
 20
-156.9999999999999
 42
0.9999999999999998
 10
-76.49999999999955
 20
-156.9999999999999
  0
LINE
  5
CF6D
330
1E
100
AcDbEntity
  8
17
  6
DASHDOT
100
AcDbLine
 10
-79.49999999999976
 20
-164.9999999999999
 30
0.0
 11
-60.5
 21
-164.9999999999999
 31
0.0
  0
LINE
  5
CF6E
330
1E
100
AcDbEntity
  8
17
  6
DASHDOT
100
AcDbLine
 10
-79.49999999999976
 20
-156.9999999999999
 30
0.0
 11
-60.5
 21
-156.9999999999999
 31
0.0
  0
LWPOLYLINE
  5
CF6F
330
1E
100
AcDbEntity
  8
24
  6
CONTINOUS
100
AcDbPolyline
 90
        5
 70
     1
 43
0.0
 10
-6.5
 20
-156.9999999999999
 10
-6.5
 20
-164.9999999999999
 42
0.9999999999999998
 10
6.5
 20
-164.9999999999999
 10
6.5
 20
-156.9999999999999
 42
0.9999999999999998
 10
-6.499999999999772
 20
-156.9999999999999
  0
LINE
  5
CF70
330
1E
100
AcDbEntity
  8
17
  6
DASHDOT
100
AcDbLine
 10
-9.5
 20
-164.9999999999999
 30
0.0
 11
9.5
 21
-164.9999999999999
 31
0.0
  0
LINE
  5
CF71
330
1E
100
AcDbEntity
  8
17
  6
DASHDOT
100
AcDbLine
 10
-9.5
 20
-156.9999999999999
 30
0.0
 11
9.5
 21
-156.9999999999999
 31
0.0
  0
LINE
  5
CF72
330
1E
100
AcDbEntity
  8
17
  6
DASHDOT
100
AcDbLine
 10
60.5
 20
-196.9999999999999
 30
0.0
 11
79.5
 21
-196.9999999999999
 31
0.0
  0
CIRCLE
  5
CF73
330
1E
100
AcDbEntity
  8
24
  6
CONTINOUS
100
AcDbCircle
 10
-70.0
 20
-196.9999999999999
 30
0.0
 40
6.499999999999997
210
0.0
220
0.0
230
-1.0
  0
LINE
  5
CF74
330
1E
100
AcDbEntity
  8
17
  6
DASHDOT
100
AcDbLine
 10
60.5
 20
-156.9999999999999
 30
0.0
 11
79.5
 21
-156.9999999999999
 31
0.0
  0
LINE
  5
CF75
330
1E
100
AcDbEntity
  8
17
  6
DASHDOT
100
AcDbLine
 10
60.5
 20
-164.9999999999999
 30
0.0
 11
79.5
 21
-164.9999999999999
 31
0.0
  0
LWPOLYLINE
  5
CF76
330
1E
100
AcDbEntity
  8
24
  6
CONTINOUS
100
AcDbPolyline
 90
        5
 70
     1
 43
0.0
 10
63.5
 20
-156.9999999999999
 10
63.5
 20
-164.9999999999999
 42
0.9999999999999998
 10
76.5
 20
-164.9999999999999
 10
76.5
 20
-156.9999999999999
 42
0.9999999999999998
 10
63.50000000000022
 20
-156.9999999999999
  0
CIRCLE
  5
CF77
330
1E
100
AcDbEntity
  8
24
  6
CONTINOUS
100
AcDbCircle
 10
-140.0
 20
-196.9999999999999
 30
0.0
 40
6.499999999999997
210
0.0
220
0.0
230
-1.0
  0
LINE
  5
CF78
330
1E
100
AcDbEntity
  8
17
  6
DASHDOT
100
AcDbLine
 10
130.4999999999999
 20
-196.9999999999999
 30
0.0
 11
149.5
 21
-196.9999999999999
 31
0.0
  0
LWPOLYLINE
  5
CF79
330
1E
100
AcDbEntity
  8
24
  6
CONTINOUS
100
AcDbPolyline
 90
        5
 70
     1
 43
0.0
 10
133.4999999999999
 20
-156.9999999999999
 10
133.4999999999999
 20
-164.9999999999999
 42
0.9999999999999998
 10
146.5
 20
-164.9999999999999
 10
146.5
 20
-156.9999999999999
 42
0.9999999999999998
 10
133.4999999999999
 20
-156.9999999999999
  0
LINE
  5
CF7A
330
1E
100
AcDbEntity
  8
24
  6
CONTINOUS
100
AcDbLine
 10
146.5
 20
-164.9999999999999
 30
0.0
 11
146.5
 21
-156.9999999999999
 31
0.0
  0
LINE
  5
CF7B
330
1E
100
AcDbEntity
  8
24
  6
CONTINOUS
100
AcDbLine
 10
133.4999999999999
 20
-164.9999999999999
 30
0.0
 11
133.4999999999999
 21
-156.9999999999999
 31
0.0
  0
ARC
  5
CF7C
330
1E
100
AcDbEntity
  8
24
  6
CONTINOUS
100
AcDbCircle
 10
-140.0
 20
-164.9999999999999
 30
0.0
 40
6.499999999999997
210
0.0
220
0.0
230
-1.0
100
AcDbArc
 50
180.0
 51
0.0
  0
LINE
  5
CF7D
330
1E
100
AcDbEntity
  8
17
  6
DASHDOT
100
AcDbLine
 10
130.4999999999999
 20
-164.9999999999999
 30
0.0
 11
149.5
 21
-164.9999999999999
 31
0.0
  0
ARC
  5
CF7E
330
1E
100
AcDbEntity
  8
24
  6
CONTINOUS
100
AcDbCircle
 10
-140.0
 20
-156.9999999999999
 30
0.0
 40
6.499999999999997
210
0.0
220
0.0
230
-1.0
100
AcDbArc
 50
0.0
 51
180.0
  0
LINE
  5
CF7F
330
1E
100
AcDbEntity
  8
17
  6
DASHDOT
100
AcDbLine
 10
130.4999999999999
 20
-156.9999999999999
 30
0.0
 11
149.5
 21
-156.9999999999999
 31
0.0
  0
LINE
  5
CF80
330
1E
100
AcDbEntity
  8
17
  6
DASHDOT
100
AcDbLine
 10
140.0
 20
231.0
 30
0.0
 11
140.0
 21
107.4999999999999
 31
0.0
  0
LINE
  5
CF81
330
1E
100
AcDbEntity
  8
17
  6
DASHDOT
100
AcDbLine
 10
70.0
 20
231.0
 30
0.0
 11
70.0
 21
107.4999999999999
 31
0.0
  0
LINE
  5
CF82
330
1E
100
AcDbEntity
  8
17
  6
DASHDOT
100
AcDbLine
 10
-69.99999999999977
 20
231.0
 30
0.0
 11
-69.99999999999977
 21
107.4999999999999
 31
0.0
  0
LWPOLYLINE
  5
CF83
330
1E
100
AcDbEntity
  8
10
  6
Continuous
100
AcDbPolyline
 90
        4
 70
     0
 43
0.0
 10
-92.49999999999976
 20
141.0
 10
-92.49999999999976
 20
221.0
 10
-47.49999999999977
 20
221.0
 10
-47.49999999999977
 20
141.0
  0
LWPOLYLINE
  5
CF84
330
1E
100
AcDbEntity
  8
10
  6
Continuous
100
AcDbPolyline
 90
        4
 70
     0
 43
0.0
 10
-22.5
 20
141.0
 10
-22.5
 20
221.0
 10
22.5
 20
221.0
 10
22.5
 20
141.0
  0
LWPOLYLINE
  5
CF85
330
1E
100
AcDbEntity
  8
10
  6
Continuous
100
AcDbPolyline
 90
        4
 70
     0
 43
0.0
 10
47.5
 20
141.0
 10
47.5
 20
221.0
 10
92.5
 20
221.0
 10
92.5
 20
141.0
  0
LWPOLYLINE
  5
CF86
330
1E
100
AcDbEntity
  8
10
  6
Continuous
100
AcDbPolyline
 90
        4
 70
     0
 43
0.0
 10
117.5
 20
141.0
 10
117.5
 20
221.0
 10
162.5
 20
221.0
 10
162.5
 20
141.0
  0
LWPOLYLINE
  5
CF87
330
1E
100
AcDbEntity
  8
10
  6
Continuous
100
AcDbPolyline
 90
        4
 70
     1
 43
0.0
 10
-105.0
 20
141.0
 10
175.0
 20
141.0
 10
175.0
 20
-131.9999999999999
 10
-105.0
 20
-131.9999999999999
  0
LINE
  5
CF88
330
1E
100
AcDbEntity
  8
10
  6
Continuous
100
AcDbLine
 10
-25.29999999999994
 20
44.99999999999997
 30
0.0
 11
-25.29999999999994
 21
-45.0
 31
0.0
  0
LINE
  5
CF89
330
1E
100
AcDbEntity
  8
10
  6
Continuous
100
AcDbLine
 10
25.70000000000027
 20
44.99999999999997
 30
0.0
 11
25.70000000000027
 21
-45.0
 31
0.0
  0
LWPOLYLINE
  5
CF8A
330
1E
100
AcDbEntity
  8
10
  6
Continuous
100
AcDbPolyline
 90
        9
 70
     1
 43
0.0
 10
80.20000000000027
 20
44.99999999999997
 10
-79.79999999999972
 20
44.99999999999997
 42
0.4142135623730935
 10
-84.79999999999973
 20
40.0
 10
-84.79999999999973
 20
-40.0
 42
0.4142135623730951
 10
-79.79999999999972
 20
-45.0
 10
80.20000000000027
 20
-45.0
 42
0.4142135623730951
 10
85.20000000000027
 20
-40.0
 10
85.20000000000027
 20
40.0
 42
0.4142135623730966
 10
80.20000000000027
 20
44.99999999999997
  0
LINE
  5
CF8B
330
1E
100
AcDbEntity
  8
10
  6
Continuous
100
AcDbLine
 10
-105.0
 20
-107.0
 30
0.0
 11
175.0
 21
-107.0
 31
0.0
  0
LINE
  5
CF8C
330
1E
100
AcDbEntity
  8
10
  6
Continuous
100
AcDbLine
 10
175.0
 20
-46.49999999999989
 30
0.0
 11
-105.0
 21
-46.49999999999989
 31
0.0
  0
LWPOLYLINE
  5
CF8D
330
1E
100
AcDbEntity
  8
10
  6
Continuous
100
AcDbPolyline
 90
        5
 70
     0
 43
0.0
 10
129.1999999999999
 20
-107.0
 42
1.0
 10
129.1999999999999
 20
-126.9999999999999
 10
151.2
 20
-126.9999999999999
 42
1.0
 10
151.2
 20
-107.0
 10
151.2
 20
-107.0
  0
LWPOLYLINE
  5
CF8F
330
1E
100
AcDbEntity
  8
10
  6
Continuous
100
AcDbPolyline
 90
        5
 70
     0
 43
0.0
 10
-10.79999999999994
 20
-107.0
 42
1.0
 10
-10.79999999999994
 20
-126.9999999999999
 10
11.20000000000001
 20
-126.9999999999999
 42
1.0
 10
11.20000000000001
 20
-107.0
 10
11.20000000000001
 20
-107.0
  0
LWPOLYLINE
  5
CF90
330
1E
100
AcDbEntity
  8
10
  6
Continuous
100
AcDbPolyline
 90
        5
 70
     0
 43
0.0
 10
-80.79999999999973
 20
-107.0
 42
1.0
 10
-80.79999999999973
 20
-126.9999999999999
 10
-58.79999999999972
 20
-126.9999999999999
 42
1.0
 10
-58.79999999999972
 20
-107.0
 10
-58.79999999999972
 20
-107.0
  0
CIRCLE
  5
CF91
330
1E
100
AcDbEntity
  8
24
  6
Continuous
 62
     2
100
AcDbCircle
 10
-34.79999999999972
 20
-116.9999999999999
 30
0.0
 40
8.249999999999996
  0
LINE
  5
CF92
330
1E
100
AcDbEntity
  8
24
  6
Continuous
 62
     2
100
AcDbLine
 10
-34.79999999999972
 20
-105.75
 30
0.0
 11
-34.79999999999972
 21
-128.2499999999999
 31
0.0
  0
LINE
  5
CF93
330
1E
100
AcDbEntity
  8
24
  6
Continuous
 62
     2
100
AcDbLine
 10
-46.04999999999972
 20
-116.9999999999999
 30
0.0
 11
-23.54999999999972
 21
-116.9999999999999
 31
0.0
  0
LWPOLYLINE
  5
CF94
330
1E
100
AcDbEntity
  8
10
  6
Continuous
100
AcDbPolyline
 90
        5
 70
     0
 43
0.0
 10
59.20000000000005
 20
-107.0
 42
1.0
 10
59.20000000000005
 20
-126.9999999999999
 10
81.20000000000004
 20
-126.9999999999999
 42
1.0
 10
81.20000000000004
 20
-107.0
 10
81.20000000000004
 20
-107.0
  0
CIRCLE
  5
CF95
330
1E
100
AcDbEntity
  8
24
  6
Continuous
 62
     2
100
AcDbCircle
 10
35.20000000000027
 20
-116.9999999999999
 30
0.0
 40
8.249999999999996
  0
LINE
  5
CF96
330
1E
100
AcDbEntity
  8
24
  6
Continuous
 62
     2
100
AcDbLine
 10
35.20000000000027
 20
-105.75
 30
0.0
 11
35.20000000000027
 21
-128.2499999999999
 31
0.0
  0
LINE
  5
CF97
330
1E
100
AcDbEntity
  8
24
  6
Continuous
 62
     2
100
AcDbLine
 10
23.95000000000027
 20
-116.9999999999999
 30
0.0
 11
46.45000000000027
 21
-116.9999999999999
 31
0.0
  0
LWPOLYLINE
  5
CF98
330
1E
100
AcDbEntity
  8
10
  6
Continuous
100
AcDbPolyline
 90
        4
 70
     1
 43
0.0
 10
-20.79999999999995
 20
37.16874500000017
 10
20.80000000000017
 20
37.16874500000017
 10
20.80000000000017
 20
29.64169999999994
 10
-20.79999999999995
 20
29.64169999999994
  0
LWPOLYLINE
  5
CF99
330
1E
100
AcDbEntity
  8
10
  6
Continuous
100
AcDbPolyline
 90
        4
 70
     0
 43
0.0
 10
-18.0
 20
29.64169999999994
 10
-18.0
 20
-25.49999999999997
 10
18.0
 20
-25.49999999999997
 10
18.0
 20
29.64169999999994
  0
LWPOLYLINE
  5
CF9A
330
1E
100
AcDbEntity
  8
10
  6
Continuous
100
AcDbPolyline
 90
        4
 70
     1
 43
0.0
 10
19.0
 20
-29.69999999999998
 10
24.5
 20
-29.69999999999998
 10
24.5
 20
-36.59999999999996
 10
19.0
 20
-36.59999999999996
  0
LINE
  5
CF9B
330
1E
100
AcDbEntity
  8
10
  6
Continuous
100
AcDbLine
 10
175.0
 20
55.49999999999993
 30
0.0
 11
-105.0
 21
55.49999999999993
 31
0.0
  0
LINE
  5
CF9C
330
1E
100
AcDbEntity
  8
10
  6
Continuous
100
AcDbLine
 10
175.0
 20
116.0
 30
0.0
 11
-105.0
 21
116.0
 31
0.0
  0
LWPOLYLINE
  5
CF9D
330
1E
100
AcDbEntity
  8
10
  6
Continuous
100
AcDbPolyline
 90
        5
 70
     0
 43
0.0
 10
151.2
 20
116.0
 42
1.0
 10
151.2
 20
136.0
 10
129.1999999999999
 20
136.0
 42
1.0
 10
129.1999999999999
 20
116.0
 10
129.1999999999999
 20
116.0
  0
CIRCLE
  5
CF9E
330
1E
100
AcDbEntity
  8
24
  6
CONTINOUS
100
AcDbCircle
 10
-34.79999999999972
 20
126.0
 30
0.0
 40
8.249999999999996
  0
LINE
  5
CF9F
330
1E
100
AcDbEntity
  8
24
  6
CONTINOUS
100
AcDbLine
 10
-34.79999999999972
 20
137.25
 30
0.0
 11
-34.79999999999972
 21
114.7499999999999
 31
0.0
  0
CIRCLE
  5
CFA0
330
1E
100
AcDbEntity
  8
24
  6
CONTINOUS
100
AcDbCircle
 10
35.20000000000027
 20
126.0
 30
0.0
 40
8.249999999999996
  0
LINE
  5
CFA1
330
1E
100
AcDbEntity
  8
24
  6
CONTINOUS
100
AcDbLine
 10
35.20000000000027
 20
137.25
 30
0.0
 11
35.20000000000027
 21
114.7499999999999
 31
0.0
  0
LWPOLYLINE
  5
CFA2
330
1E
100
AcDbEntity
  8
10
  6
Continuous
100
AcDbPolyline
 90
        5
 70
     0
 43
0.0
 10
-58.79999999999972
 20
116.0
 42
1.0
 10
-58.79999999999972
 20
136.0
 10
-80.79999999999973
 20
136.0
 42
1.0
 10
-80.79999999999973
 20
116.0
 10
-80.79999999999973
 20
116.0
  0
LWPOLYLINE
  5
CFA3
330
1E
100
AcDbEntity
  8
10
  6
Continuous
100
AcDbPolyline
 90
        5
 70
     0
 43
0.0
 10
11.20000000000026
 20
116.0
 42
1.0
 10
11.20000000000026
 20
136.0
 10
-10.79999999999972
 20
136.0
 42
1.0
 10
-10.79999999999972
 20
116.0
 10
-10.79999999999972
 20
116.0
  0
LWPOLYLINE
  5
CFA4
330
1E
100
AcDbEntity
  8
10
  6
Continuous
100
AcDbPolyline
 90
        5
 70
     0
 43
0.0
 10
81.20000000000004
 20
116.0
 42
1.0
 10
81.20000000000004
 20
136.0
 10
59.20000000000005
 20
136.0
 42
1.0
 10
59.20000000000005
 20
116.0
 10
59.20000000000005
 20
116.0
  0
LINE
  5
CFA5
330
1E
100
AcDbEntity
  8
10
  6
Continuous
100
AcDbLine
 10
25.70000000000027
 20
44.54681499999989
 30
0.0
 11
-25.29999999999994
 21
44.54681499999989
 31
0.0
  0
LINE
  5
CFA7
330
1E
100
AcDbEntity
  8
24
  6
CONTINOUS
100
AcDbLine
 10
-46.04999999999972
 20
126.0
 30
0.0
 11
-23.54999999999972
 21
126.0
 31
0.0
  0
LINE
  5
CFA8
330
1E
100
AcDbEntity
  8
24
  6
CONTINOUS
100
AcDbLine
 10
23.95000000000027
 20
126.0
 30
0.0
 11
46.45000000000027
 21
126.0
 31
0.0
  0
LWPOLYLINE
  5
CFA9
330
1E
100
AcDbEntity
  8
24
  6
CONTINOUS
100
AcDbPolyline
 90
        5
 70
     1
 43
0.0
 10
-76.49999999999955
 20
174.0
 10
-76.49999999999976
 20
166.0
 42
1.000000000000011
 10
-63.49999999999977
 20
166.0
 10
-63.49999999999977
 20
174.0
 42
0.9999999999999864
 10
-76.49999999999955
 20
174.0
  0
LWPOLYLINE
  5
CFAA
330
1E
100
AcDbEntity
  8
24
  6
CONTINOUS
100
AcDbPolyline
 90
        5
 70
     1
 43
0.0
 10
-6.499999999999772
 20
174.0
 10
-6.5
 20
166.0
 42
1.000000000000011
 10
6.5
 20
166.0
 10
6.5
 20
174.0
 42
0.9999999999999864
 10
-6.499999999999772
 20
174.0
  0
LINE
  5
CFAB
330
1E
100
AcDbEntity
  8
17
  6
DASHDOT
100
AcDbLine
 10
-79.49999999999976
 20
166.0
 30
0.0
 11
-60.5
 21
166.0
 31
0.0
  0
LINE
  5
CFAC
330
1E
100
AcDbEntity
  8
17
  6
DASHDOT
100
AcDbLine
 10
-79.49999999999976
 20
174.0
 30
0.0
 11
-60.5
 21
174.0
 31
0.0
  0
LINE
  5
CFAD
330
1E
100
AcDbEntity
  8
17
  6
DASHDOT
100
AcDbLine
 10
-9.5
 20
174.0
 30
0.0
 11
9.5
 21
174.0
 31
0.0
  0
LINE
  5
CFAE
330
1E
100
AcDbEntity
  8
17
  6
DASHDOT
100
AcDbLine
 10
-9.5
 20
166.0
 30
0.0
 11
9.5
 21
166.0
 31
0.0
  0
CIRCLE
  5
CFAF
330
1E
100
AcDbEntity
  8
24
  6
CONTINOUS
100
AcDbCircle
 10
-69.99999999999977
 20
206.0
 30
0.0
 40
6.499999999999997
  0
LINE
  5
CFB0
330
1E
100
AcDbEntity
  8
17
  6
DASHDOT
100
AcDbLine
 10
-79.49999999999976
 20
206.0
 30
0.0
 11
-60.5
 21
206.0
 31
0.0
  0
CIRCLE
  5
CFB1
330
1E
100
AcDbEntity
  8
24
  6
CONTINOUS
100
AcDbCircle
 10
0.0
 20
206.0
 30
0.0
 40
6.499999999999997
  0
LINE
  5
CFB2
330
1E
100
AcDbEntity
  8
17
  6
DASHDOT
100
AcDbLine
 10
-9.5
 20
206.0
 30
0.0
 11
9.5
 21
206.0
 31
0.0
  0
LWPOLYLINE
  5
CFB3
330
1E
100
AcDbEntity
  8
24
  6
CONTINOUS
100
AcDbPolyline
 90
        5
 70
     1
 43
0.0
 10
63.50000000000022
 20
174.0
 10
63.5
 20
166.0
 42
1.000000000000011
 10
76.5
 20
166.0
 10
76.5
 20
174.0
 42
0.9999999999999864
 10
63.50000000000022
 20
174.0
  0
LINE
  5
CFB4
330
1E
100
AcDbEntity
  8
17
  6
DASHDOT
100
AcDbLine
 10
60.5
 20
166.0
 30
0.0
 11
79.5
 21
166.0
 31
0.0
  0
LINE
  5
CFB5
330
1E
100
AcDbEntity
  8
17
  6
DASHDOT
100
AcDbLine
 10
60.5
 20
174.0
 30
0.0
 11
79.5
 21
174.0
 31
0.0
  0
CIRCLE
  5
CFB6
330
1E
100
AcDbEntity
  8
24
  6
CONTINOUS
100
AcDbCircle
 10
70.0
 20
206.0
 30
0.0
 40
6.499999999999997
  0
LINE
  5
CFB7
330
1E
100
AcDbEntity
  8
17
  6
DASHDOT
100
AcDbLine
 10
60.5
 20
206.0
 30
0.0
 11
79.5
 21
206.0
 31
0.0
  0
LINE
  5
CFB8
330
1E
100
AcDbEntity
  8
10
  6
Continuous
100
AcDbLine
 10
139.9613699999999
 20
85.01980999999998
 30
0.0
 11
140.8140350000001
 21
85.87247500000016
 31
0.0
  0
LINE
  5
CFB9
330
1E
100
AcDbEntity
  8
10
  6
Continuous
100
AcDbLine
 10
135.8437499999999
 20
84.68079000000001
 30
0.0
 11
137.03125
 21
85.86829000000006
 31
0.0
  0
LINE
  5
CFBA
330
1E
100
AcDbEntity
  8
10
  6
Continuous
100
AcDbLine
 10
139.7884950000002
 20
85.26678000000002
 30
0.0
 11
140.6411600000001
 21
86.11943999999992
 31
0.0
  0
LINE
  5
CFBB
330
1E
100
AcDbEntity
  8
10
  6
Continuous
100
AcDbLine
 10
142.96875
 20
84.66843500000008
 30
0.0
 11
144.15625
 21
85.85593499999998
 31
0.0
  0
CIRCLE
  5
CFBC
330
1E
100
AcDbEntity
  8
10
  6
Continuous
100
AcDbCircle
 10
140.0
 20
86.00000000000006
 30
0.0
 40
9.499999999999996
  0
LINE
  5
CFBD
330
1E
100
AcDbEntity
  8
10
  6
Continuous
100
AcDbLine
 10
135.8437499999999
 20
85.10063499999999
 30
0.0
 11
137.03125
 21
86.28813500000005
 31
0.0
  0
LINE
  5
CFBE
330
1E
100
AcDbEntity
  8
10
  6
Continuous
100
AcDbLine
 10
135.8437499999999
 20
85.52047999999997
 30
0.0
 11
137.03125
 21
86.70798000000003
 31
0.0
  0
LINE
  5
CFBF
330
1E
100
AcDbEntity
  8
10
  6
Continuous
100
AcDbLine
 10
139.6156150000001
 20
85.51374500000006
 30
0.0
 11
140.4682799999999
 21
86.36640999999995
 31
0.0
  0
LINE
  5
CFC0
330
1E
100
AcDbEntity
  8
10
  6
Continuous
100
AcDbLine
 10
142.96875
 20
85.50812500000004
 30
0.0
 11
144.15625
 21
86.69562499999996
 31
0.0
  0
LINE
  5
CFC1
330
1E
100
AcDbEntity
  8
10
  6
Continuous
100
AcDbLine
 10
142.96875
 20
85.08828000000006
 30
0.0
 11
144.15625
 21
86.27577999999996
 31
0.0
  0
LINE
  5
CFC2
330
1E
100
AcDbEntity
  8
10
  6
Continuous
100
AcDbLine
 10
141.8630200000002
 20
82.30316999999997
 30
0.0
 11
142.715685
 21
83.15583000000001
 31
0.0
  0
LINE
  5
CFC3
330
1E
100
AcDbEntity
  8
10
  6
Continuous
100
AcDbLine
 10
142.0358999999999
 20
82.05619999999994
 30
0.0
 11
142.88856
 21
82.90886499999997
 31
0.0
  0
LINE
  5
CFC4
330
1E
100
AcDbEntity
  8
10
  6
Continuous
100
AcDbLine
 10
142.208775
 20
81.80923500000004
 30
0.0
 11
144.15625
 21
83.75670999999995
 31
0.0
  0
LINE
  5
CFC5
330
1E
100
AcDbEntity
  8
10
  6
Continuous
100
AcDbLine
 10
142.38165
 20
81.56226499999986
 30
0.0
 11
144.15625
 21
83.33686499999997
 31
0.0
  0
LINE
  5
CFC6
330
1E
100
AcDbEntity
  8
10
  6
Continuous
100
AcDbLine
 10
142.55453
 20
81.3153000000001
 30
0.0
 11
144.15625
 21
82.91701999999999
 31
0.0
  0
LINE
  5
CFC7
330
1E
100
AcDbEntity
  8
10
  6
Continuous
100
AcDbLine
 10
140.13425
 20
84.77284499999994
 30
0.0
 11
140.98691
 21
85.62550499999984
 31
0.0
  0
LINE
  5
CFC8
330
1E
100
AcDbEntity
  8
10
  6
Continuous
100
AcDbLine
 10
141.1715100000001
 20
83.29103999999999
 30
0.0
 11
142.024175
 21
84.14369999999989
 31
0.0
  0
LINE
  5
CFC9
330
1E
100
AcDbEntity
  8
10
  6
Continuous
100
AcDbLine
 10
140.65288
 20
84.03193999999997
 30
0.0
 11
141.5055449999999
 21
84.884605
 31
0.0
  0
LINE
  5
CFCA
330
1E
100
AcDbEntity
  8
10
  6
Continuous
100
AcDbLine
 10
140.9986349999998
 20
83.53800499999989
 30
0.0
 11
141.8513
 21
84.39066999999992
 31
0.0
  0
LINE
  5
CFCB
330
1E
100
AcDbEntity
  8
10
  6
Continuous
100
AcDbLine
 10
140.307125
 20
84.52587500000005
 30
0.0
 11
141.1597900000001
 21
85.37854000000008
 31
0.0
  0
LINE
  5
CFCC
330
1E
100
AcDbEntity
  8
10
  6
Continuous
100
AcDbLine
 10
141.3443899999998
 20
83.0440700000001
 30
0.0
 11
142.197055
 21
83.89673500000013
 31
0.0
  0
LINE
  5
CFCD
330
1E
100
AcDbEntity
  8
10
  6
Continuous
100
AcDbLine
 10
141.5172650000001
 20
82.79710500000005
 30
0.0
 11
142.36993
 21
83.64976499999995
 31
0.0
  0
LINE
  5
CFCE
330
1E
100
AcDbEntity
  8
10
  6
Continuous
100
AcDbLine
 10
140.825755
 20
83.78497500000007
 30
0.0
 11
141.6784200000001
 21
84.63763499999997
 31
0.0
  0
LINE
  5
CFCF
330
1E
100
AcDbEntity
  8
10
  6
Continuous
100
AcDbLine
 10
140.480005
 20
84.27890999999986
 30
0.0
 11
141.3326650000001
 21
85.13157000000004
 31
0.0
  0
LINE
  5
CFD0
330
1E
100
AcDbEntity
  8
10
  6
Continuous
100
AcDbLine
 10
141.690145
 20
82.55013500000002
 30
0.0
 11
142.542805
 21
83.40280000000005
 31
0.0
  0
LINE
  5
CFD1
330
1E
100
AcDbEntity
  8
10
  6
Continuous
100
AcDbLine
 10
135.8437499999999
 20
81.74187999999984
 30
0.0
 11
137.03125
 21
82.9293799999999
 31
0.0
  0
LINE
  5
CFD2
330
1E
100
AcDbEntity
  8
10
  6
Continuous
100
AcDbLine
 10
135.8437499999999
 20
83.84110500000003
 30
0.0
 11
137.03125
 21
85.02860499999995
 31
0.0
  0
LINE
  5
CFD3
330
1E
100
AcDbEntity
  8
10
  6
Continuous
100
AcDbLine
 10
135.8437499999999
 20
84.26095000000001
 30
0.0
 11
137.03125
 21
85.44844999999993
 31
0.0
  0
LINE
  5
CFD4
330
1E
100
AcDbEntity
  8
10
  6
Continuous
100
AcDbLine
 10
135.8437499999999
 20
83.42126000000005
 30
0.0
 11
137.03125
 21
84.60875999999997
 31
0.0
  0
LINE
  5
CFD5
330
1E
100
AcDbEntity
  8
10
  6
Continuous
100
AcDbLine
 10
135.8437499999999
 20
83.00141500000007
 30
0.0
 11
137.03125
 21
84.18891499999999
 31
0.0
  0
LINE
  5
CFD6
330
1E
100
AcDbEntity
  8
10
  6
Continuous
100
AcDbLine
 10
135.8437499999999
 20
82.58157000000009
 30
0.0
 11
137.03125
 21
83.76907
 31
0.0
  0
LINE
  5
CFD7
330
1E
100
AcDbEntity
  8
10
  6
Continuous
100
AcDbLine
 10
135.8437499999999
 20
82.16172500000011
 30
0.0
 11
137.03125
 21
83.34922500000002
 31
0.0
  0
LINE
  5
CFD8
330
1E
100
AcDbEntity
  8
10
  6
Continuous
100
AcDbLine
 10
136.263595
 20
80.06250000000006
 30
0.0
 11
137.03125
 21
80.830155
 31
0.0
  0
LINE
  5
CFD9
330
1E
100
AcDbEntity
  8
10
  6
Continuous
100
AcDbLine
 10
136.6834399999999
 20
80.06250000000006
 30
0.0
 11
137.03125
 21
80.41031000000002
 31
0.0
  0
LINE
  5
CFDA
330
1E
100
AcDbEntity
  8
10
  6
Continuous
100
AcDbLine
 10
135.8437499999999
 20
80.06250000000006
 30
0.0
 11
137.03125
 21
81.24999999999998
 31
0.0
  0
LINE
  5
CFDB
330
1E
100
AcDbEntity
  8
10
  6
Continuous
100
AcDbLine
 10
135.8437499999999
 20
80.4823449999999
 30
0.0
 11
137.03125
 21
81.66984499999996
 31
0.0
  0
LINE
  5
CFDC
330
1E
100
AcDbEntity
  8
10
  6
Continuous
100
AcDbLine
 10
135.8437499999999
 20
80.90218999999988
 30
0.0
 11
137.03125
 21
82.08968999999994
 31
0.0
  0
LINE
  5
CFDD
330
1E
100
AcDbEntity
  8
10
  6
Continuous
100
AcDbLine
 10
135.8437499999999
 20
81.32203499999986
 30
0.0
 11
137.03125
 21
82.50953499999992
 31
0.0
  0
LINE
  5
CFDE
330
1E
100
AcDbEntity
  8
10
  6
Continuous
100
AcDbLine
 10
142.96875
 20
83.82874500000012
 30
0.0
 11
144.15625
 21
85.01624500000017
 31
0.0
  0
LINE
  5
CFDF
330
1E
100
AcDbEntity
  8
10
  6
Continuous
100
AcDbLine
 10
142.96875
 20
84.2485900000001
 30
0.0
 11
144.15625
 21
85.43609000000001
 31
0.0
  0
LINE
  5
CFE0
330
1E
100
AcDbEntity
  8
10
  6
Continuous
100
AcDbLine
 10
142.96875
 20
82.98905499999987
 30
0.0
 11
144.15625
 21
84.17655499999993
 31
0.0
  0
LINE
  5
CFE1
330
1E
100
AcDbEntity
  8
10
  6
Continuous
100
AcDbLine
 10
142.96875
 20
83.40889999999985
 30
0.0
 11
144.15625
 21
84.59639999999991
 31
0.0
  0
LINE
  5
CFE2
330
1E
100
AcDbEntity
  8
10
  6
Continuous
100
AcDbLine
 10
143.8207999999999
 20
80.06250000000006
 30
0.0
 11
144.15625
 21
80.39795500000009
 31
0.0
  0
LINE
  5
CFE3
330
1E
100
AcDbEntity
  8
10
  6
Continuous
100
AcDbLine
 10
143.2460399999999
 20
80.32742999999994
 30
0.0
 11
144.15625
 21
81.23763999999992
 31
0.0
  0
LINE
  5
CFE4
330
1E
100
AcDbEntity
  8
10
  6
Continuous
100
AcDbLine
 10
143.400955
 20
80.06250000000006
 30
0.0
 11
144.15625
 21
80.81780000000007
 31
0.0
  0
LINE
  5
CFE5
330
1E
100
AcDbEntity
  8
10
  6
Continuous
100
AcDbLine
 10
142.7274050000001
 20
81.06833000000007
 30
0.0
 11
144.15625
 21
82.497175
 31
0.0
  0
LINE
  5
CFE6
330
1E
100
AcDbEntity
  8
10
  6
Continuous
100
AcDbLine
 10
143.0731599999999
 20
80.57439499999999
 30
0.0
 11
144.15625
 21
81.65748500000004
 31
0.0
  0
LINE
  5
CFE7
330
1E
100
AcDbEntity
  8
10
  6
Continuous
100
AcDbLine
 10
142.900285
 20
80.82136500000002
 30
0.0
 11
144.15625
 21
82.07733000000002
 31
0.0
  0
LINE
  5
CFE8
330
1E
100
AcDbEntity
  8
10
  6
Continuous
100
AcDbLine
 10
138.4054749999999
 20
87.24251499999992
 30
0.0
 11
139.25814
 21
88.09517999999995
 31
0.0
  0
LINE
  5
CFE9
330
1E
100
AcDbEntity
  8
10
  6
Continuous
100
AcDbLine
 10
137.7139700000002
 20
88.23038500000006
 30
0.0
 11
138.56663
 21
89.08305000000011
 31
0.0
  0
LINE
  5
CFEA
330
1E
100
AcDbEntity
  8
10
  6
Continuous
100
AcDbLine
 10
137.3682149999999
 20
88.72432000000001
 30
0.0
 11
138.2208749999998
 21
89.57698500000004
 31
0.0
  0
LINE
  5
CFEB
330
1E
100
AcDbEntity
  8
10
  6
Continuous
100
AcDbLine
 10
137.54109
 20
88.47735499999997
 30
0.0
 11
138.3937549999999
 21
89.33002
 31
0.0
  0
LINE
  5
CFEC
330
1E
100
AcDbEntity
  8
10
  6
Continuous
100
AcDbLine
 10
137.8868449999999
 20
87.98341999999989
 30
0.0
 11
138.7395100000001
 21
88.83608499999992
 31
0.0
  0
LINE
  5
CFED
330
1E
100
AcDbEntity
  8
10
  6
Continuous
100
AcDbLine
 10
138.2325999999999
 20
87.48948500000009
 30
0.0
 11
139.0852650000001
 21
88.34214999999984
 31
0.0
  0
LINE
  5
CFEE
330
1E
100
AcDbEntity
  8
10
  6
Continuous
100
AcDbLine
 10
137.195335
 20
88.97129000000004
 30
0.0
 11
138.048
 21
89.82395500000006
 31
0.0
  0
LINE
  5
CFEF
330
1E
100
AcDbEntity
  8
10
  6
Continuous
100
AcDbLine
 10
138.0597199999999
 20
87.73645
 30
0.0
 11
138.912385
 21
88.58911500000003
 31
0.0
  0
LINE
  5
CFF0
330
1E
100
AcDbEntity
  8
10
  6
Continuous
100
AcDbLine
 10
135.8437499999999
 20
87.61970500000002
 30
0.0
 11
137.03125
 21
88.80720500000006
 31
0.0
  0
LINE
  5
CFF1
330
1E
100
AcDbEntity
  8
10
  6
Continuous
100
AcDbLine
 10
135.8437499999999
 20
87.19986000000004
 30
0.0
 11
137.03125
 21
88.38736000000009
 31
0.0
  0
LINE
  5
CFF2
330
1E
100
AcDbEntity
  8
10
  6
Continuous
100
AcDbLine
 10
135.8437499999999
 20
88.87923999999996
 30
0.0
 11
137.5293700000002
 21
90.56485499999991
 31
0.0
  0
LINE
  5
CFF3
330
1E
100
AcDbEntity
  8
10
  6
Continuous
100
AcDbLine
 10
135.8437499999999
 20
89.71892999999992
 30
0.0
 11
137.1836149999999
 21
91.05878999999999
 31
0.0
  0
LINE
  5
CFF4
330
1E
100
AcDbEntity
  8
10
  6
Continuous
100
AcDbLine
 10
135.8437499999999
 20
91.81814999999984
 30
0.0
 11
135.9630999999999
 21
91.93750000000006
 31
0.0
  0
LINE
  5
CFF5
330
1E
100
AcDbEntity
  8
10
  6
Continuous
100
AcDbLine
 10
135.8437499999999
 20
89.29908499999994
 30
0.0
 11
137.3564899999998
 21
90.81182499999995
 31
0.0
  0
LINE
  5
CFF6
330
1E
100
AcDbEntity
  8
10
  6
Continuous
100
AcDbLine
 10
135.8437499999999
 20
90.55862000000015
 30
0.0
 11
136.83786
 21
91.55272500000007
 31
0.0
  0
LINE
  5
CFF7
330
1E
100
AcDbEntity
  8
10
  6
Continuous
100
AcDbLine
 10
135.8437499999999
 20
88.03955
 30
0.0
 11
137.875125
 21
90.07091999999998
 31
0.0
  0
LINE
  5
CFF8
330
1E
100
AcDbEntity
  8
10
  6
Continuous
100
AcDbLine
 10
135.8437499999999
 20
90.97846000000002
 30
0.0
 11
136.66498
 21
91.7996950000001
 31
0.0
  0
LINE
  5
CFF9
330
1E
100
AcDbEntity
  8
10
  6
Continuous
100
AcDbLine
 10
135.8437499999999
 20
90.1387749999999
 30
0.0
 11
137.010735
 21
91.30576000000003
 31
0.0
  0
LINE
  5
CFFA
330
1E
100
AcDbEntity
  8
10
  6
Continuous
100
AcDbLine
 10
135.8437499999999
 20
88.45939499999998
 30
0.0
 11
137.7022449999999
 21
90.31788999999987
 31
0.0
  0
LINE
  5
CFFB
330
1E
100
AcDbEntity
  8
10
  6
Continuous
100
AcDbLine
 10
135.8437499999999
 20
91.398305
 30
0.0
 11
136.3829450000002
 21
91.93750000000006
 31
0.0
  0
LINE
  5
CFFC
330
1E
100
AcDbEntity
  8
10
  6
Continuous
100
AcDbLine
 10
138.9241099999999
 20
86.50161499999994
 30
0.0
 11
139.7767699999999
 21
87.35427999999997
 31
0.0
  0
LINE
  5
CFFD
330
1E
100
AcDbEntity
  8
10
  6
Continuous
100
AcDbLine
 10
138.75123
 20
86.74858000000012
 30
0.0
 11
139.6038950000001
 21
87.60124500000015
 31
0.0
  0
LINE
  5
CFFE
330
1E
100
AcDbEntity
  8
10
  6
Continuous
100
AcDbLine
 10
135.8437499999999
 20
86.78001499999991
 30
0.0
 11
137.03125
 21
87.96751499999983
 31
0.0
  0
LINE
  5
CFFF
330
1E
100
AcDbEntity
  8
10
  6
Continuous
100
AcDbLine
 10
135.8437499999999
 20
86.36016999999993
 30
0.0
 11
137.03125
 21
87.54766999999999
 31
0.0
  0
LINE
  5
D000
330
1E
100
AcDbEntity
  8
10
  6
Continuous
100
AcDbLine
 10
138.5783550000001
 20
86.99555000000001
 30
0.0
 11
139.431015
 21
87.84821500000004
 31
0.0
  0
LINE
  5
D001
330
1E
100
AcDbEntity
  8
10
  6
Continuous
100
AcDbLine
 10
139.096985
 20
86.25464500000004
 30
0.0
 11
139.9496499999999
 21
87.10731000000006
 31
0.0
  0
LINE
  5
D002
330
1E
100
AcDbEntity
  8
10
  6
Continuous
100
AcDbLine
 10
142.96875
 20
91.38594999999993
 30
0.0
 11
143.520305
 21
91.93750000000006
 31
0.0
  0
LINE
  5
D003
330
1E
100
AcDbEntity
  8
10
  6
Continuous
100
AcDbLine
 10
142.96875
 20
90.96610499999995
 30
0.0
 11
143.9401500000001
 21
91.93750000000006
 31
0.0
  0
LINE
  5
D004
330
1E
100
AcDbEntity
  8
10
  6
Continuous
100
AcDbLine
 10
142.96875
 20
91.80579000000006
 30
0.0
 11
143.10046
 21
91.93750000000006
 31
0.0
  0
LINE
  5
D005
330
1E
100
AcDbEntity
  8
10
  6
Continuous
100
AcDbLine
 10
142.96875
 20
89.28672500000002
 30
0.0
 11
144.15625
 21
90.47422500000008
 31
0.0
  0
LINE
  5
D006
330
1E
100
AcDbEntity
  8
10
  6
Continuous
100
AcDbLine
 10
142.96875
 20
88.44703499999992
 30
0.0
 11
144.15625
 21
89.63453499999998
 31
0.0
  0
LINE
  5
D007
330
1E
100
AcDbEntity
  8
10
  6
Continuous
100
AcDbLine
 10
142.96875
 20
90.12641499999999
 30
0.0
 11
144.15625
 21
91.31391499999999
 31
0.0
  0
LINE
  5
D008
330
1E
100
AcDbEntity
  8
10
  6
Continuous
100
AcDbLine
 10
142.96875
 20
88.02718999999994
 30
0.0
 11
144.15625
 21
89.21469
 31
0.0
  0
LINE
  5
D009
330
1E
100
AcDbEntity
  8
10
  6
Continuous
100
AcDbLine
 10
142.96875
 20
88.8668799999999
 30
0.0
 11
144.15625
 21
90.05437999999996
 31
0.0
  0
LINE
  5
D00A
330
1E
100
AcDbEntity
  8
10
  6
Continuous
100
AcDbLine
 10
142.96875
 20
90.54625999999997
 30
0.0
 11
144.15625
 21
91.73376000000002
 31
0.0
  0
LINE
  5
D00B
330
1E
100
AcDbEntity
  8
10
  6
Continuous
100
AcDbLine
 10
142.96875
 20
87.60734499999996
 30
0.0
 11
144.15625
 21
88.79484500000002
 31
0.0
  0
LINE
  5
D00C
330
1E
100
AcDbEntity
  8
10
  6
Continuous
100
AcDbLine
 10
142.96875
 20
87.18749999999998
 30
0.0
 11
144.15625
 21
88.37500000000003
 31
0.0
  0
LINE
  5
D00D
330
1E
100
AcDbEntity
  8
10
  6
Continuous
100
AcDbLine
 10
142.96875
 20
89.70657
 30
0.0
 11
144.15625
 21
90.89407000000006
 31
0.0
  0
LINE
  5
D00E
330
1E
100
AcDbEntity
  8
10
  6
Continuous
100
AcDbLine
 10
142.96875
 20
86.767655
 30
0.0
 11
144.15625
 21
87.95515500000004
 31
0.0
  0
LINE
  5
D00F
330
1E
100
AcDbEntity
  8
10
  6
Continuous
100
AcDbLine
 10
142.96875
 20
86.34781000000002
 30
0.0
 11
144.15625
 21
87.53531000000004
 31
0.0
  0
LINE
  5
D010
330
1E
100
AcDbEntity
  8
10
  6
Continuous
100
AcDbLine
 10
135.8437499999999
 20
85.94032499999995
 30
0.0
 11
137.03125
 21
87.12782500000001
 31
0.0
  0
LINE
  5
D011
330
1E
100
AcDbEntity
  8
10
  6
Continuous
100
AcDbLine
 10
139.2698649999996
 20
86.00768
 30
0.0
 11
140.1225249999999
 21
86.86034500000003
 31
0.0
  0
LINE
  5
D012
330
1E
100
AcDbEntity
  8
10
  6
Continuous
100
AcDbLine
 10
139.4427399999998
 20
85.76070999999997
 30
0.0
 11
140.295405
 21
86.613375
 31
0.0
  0
LINE
  5
D013
330
1E
100
AcDbEntity
  8
10
  6
Continuous
100
AcDbLine
 10
142.96875
 20
85.92796500000003
 30
0.0
 11
144.15625
 21
87.11546500000009
 31
0.0
  0
LWPOLYLINE
  5
D014
330
1E
100
AcDbEntity
  8
24
  6
CONTINOUS
100
AcDbPolyline
 90
        5
 70
     1
 43
0.0
 10
133.4999999999999
 20
174.0
 10
133.4999999999999
 20
166.0
 42
1.000000000000011
 10
146.5
 20
166.0
 10
146.5
 20
174.0
 42
0.9999999999999864
 10
133.4999999999999
 20
174.0
  0
LINE
  5
D015
330
1E
100
AcDbEntity
  8
17
  6
DASHDOT
100
AcDbLine
 10
130.4999999999999
 20
174.0
 30
0.0
 11
149.5
 21
174.0
 31
0.0
  0
LINE
  5
D016
330
1E
100
AcDbEntity
  8
17
  6
DASHDOT
100
AcDbLine
 10
130.4999999999999
 20
166.0
 30
0.0
 11
149.5
 21
166.0
 31
0.0
  0
CIRCLE
  5
D017
330
1E
100
AcDbEntity
  8
24
  6
CONTINOUS
100
AcDbCircle
 10
140.0
 20
206.0
 30
0.0
 40
6.499999999999997
  0
LINE
  5
D018
330
1E
100
AcDbEntity
  8
17
  6
DASHDOT
100
AcDbLine
 10
130.4999999999999
 20
206.0
 30
0.0
 11
149.5
 21
206.0
 31
0.0
  0
LWPOLYLINE
  5
D019
330
1E
100
AcDbEntity
  8
18
100
AcDbPolyline
 90
        4
 70
     0
 43
0.0
 10
-37.0
 20
141.0
 10
-37.0
 20
251.0
 10
-33.0
 20
251.0
 10
-33.0
 20
141.0
  0
LWPOLYLINE
  5
D01A
330
1E
100
AcDbEntity
  8
18
100
AcDbPolyline
 90
        4
 70
     0
 43
0.0
 10
32.99999999999977
 20
141.0
 10
32.99999999999977
 20
251.0
 10
36.99999999999977
 20
251.0
 10
36.99999999999977
 20
141.0
  0
LWPOLYLINE
  5
D01B
330
1E
100
AcDbEntity
  8
18
100
AcDbPolyline
 90
        4
 70
     0
 43
0.0
 10
102.9999999999997
 20
141.0
 10
102.9999999999997
 20
251.0
 10
106.9999999999996
 20
251.0
 10
106.9999999999996
 20
141.0
  0
DIMENSION
  5
D141
330
1E
100
AcDbEntity
  8
30
  6
Continuous
100
AcDbDimension
  2
*D46
 10
486.1999999999999
 20
-671.6667135812677
 30
0.0
 11
400.1999999999998
 21
-665.6667135812678
 31
0.0
 70
    32
  1
 <> 
 71
     5
 42
171.9999999999995
  3
STANDARD1
100
AcDbAlignedDimension
 13
314.1999999999999
 23
-544.5708385812682
 33
0.0
 14
486.1999999999999
 24
-544.5708385812682
 34
0.0
100
AcDbRotatedDimension
  0
DIMENSION
  5
D142
330
1E
100
AcDbEntity
  8
30
  6
Continuous
100
AcDbDimension
  2
*D47
 10
320.2000000000018
 20
-459.5708385812684
 30
0.0
 11
329.3816735245993
 21
-469.5007755237331
 31
0.0
 70
   164
 71
     5
 42
6.000000000002557
  3
STANDARD1
100
AcDbRadialDimension
 15
320.9090041147605
 25
-465.5288007467478
 35
0.0
 40
0.0
  0
LWPOLYLINE
  5
D1D2
330
1E
100
AcDbEntity
  8
10
  6
CONTINOUS
100
AcDbPolyline
 90
        4
 70
     0
 43
0.0
 10
-85.00000000000024
 20
308.8526745713753
 10
-85.00000000000024
 20
304.8526745713753
 10
85.0
 20
304.8526745713753
 10
85.0
 20
308.8526745713753
  0
LWPOLYLINE
  5
D1D3
330
1E
100
AcDbEntity
  8
10
  6
CONTINOUS
100
AcDbPolyline
 90
        4
 70
     0
 43
0.0
 10
-25.5
 20
304.8526745713753
 10
-25.5
 20
300.8526745713751
 10
25.49999999999977
 20
300.8526745713751
 10
25.49999999999977
 20
304.8526745713753
  0
LWPOLYLINE
  5
D1D4
330
1E
100
AcDbEntity
  8
10
  6
CONTINOUS
100
AcDbPolyline
 90
        4
 70
     0
 43
0.0
 10
-21.00000000000022
 20
300.8526745713751
 10
-21.00000000000022
 20
268.8526745713754
 10
20.59999999999991
 20
268.8526745713754
 10
20.59999999999991
 20
300.8526745713751
  0
LWPOLYLINE
  5
D1D5
330
1E
100
AcDbEntity
  8
10
  6
CONTINOUS
100
AcDbPolyline
 90
        4
 70
     0
 43
0.0
 10
-14.0
 20
300.8526745713751
 10
-14.0
 20
286.8526745713753
 10
13.99999999999977
 20
286.8526745713753
 10
13.99999999999977
 20
300.8526745713751
  0
DIMENSION
  5
D1D6
330
1E
100
AcDbEntity
  8
30
  6
Continuous
100
AcDbDimension
  2
*D51
 10
389.9999999999997
 20
-269.8696843384353
 30
0.0
 11
379.9523608477993
 21
-265.6288760162979
 31
0.0
 70
   160
  1
 <> 
 71
     5
 42
3.999999999999771
  3
STANDARD1
100
AcDbAlignedDimension
 13
386.0
 23
-0.499999999999969
 33
0.0
 14
389.9999999999997
 24
-49.99999999999978
 34
0.0
100
AcDbRotatedDimension
1001
ACAD
1000
DSTYLE
1002
{
1070
   279
1070
     2
1070
    44
1040
0.1
1070
    42
1040
2.0
1070
   172
1070
     1
1002
}
  0
DIMENSION
  5
D1D7
330
1E
100
AcDbEntity
  8
30
  6
Continuous
100
AcDbDimension
  2
*D52
 10
496.9999999999995
 20
-290.6000014759378
 30
0.0
 11
433.2499999999996
 21
-284.6000014759378
 31
0.0
 70
    32
  1
 <> 
 71
     5
 42
127.4999999999994
  3
STANDARD1
100
AcDbAlignedDimension
 13
369.5
 23
5.000000000000124
 33
0.0
 14
496.9999999999995
 24
-0.499999999999969
 34
0.0
100
AcDbRotatedDimension
  0
DIMENSION
  5
D1D8
330
1E
100
AcDbEntity
  8
30
  6
Continuous
100
AcDbDimension
  2
*D53
 10
496.9999999999995
 20
-269.8696843384353
 30
0.0
 11
443.4999999999996
 21
-263.8696843384355
 31
0.0
 70
    32
  1
 <> 
 71
     5
 42
106.9999999999996
  3
STANDARD1
100
AcDbAlignedDimension
 13
389.9999999999997
 23
-49.99999999999978
 33
0.0
 14
496.9999999999995
 24
-136.9999999999996
 34
0.0
100
AcDbRotatedDimension
  0
DIMENSION
  5
D1D9
330
1E
100
AcDbEntity
  8
30
  6
Continuous
100
AcDbDimension
  2
*D54
 10
496.9999999999995
 20
-249.8050253795752
 30
0.0
 11
445.4999999999997
 21
-243.8050253795752
 31
0.0
 70
    32
  1
 <> 
 71
     5
 42
102.9999999999994
  3
STANDARD1
100
AcDbAlignedDimension
 13
394.0
 23
-49.99999999999978
 33
0.0
 14
496.9999999999995
 24
-136.9999999999996
 34
0.0
100
AcDbRotatedDimension
  0
DIMENSION
  5
D1DA
330
1E
100
AcDbEntity
  8
30
  6
Continuous
100
AcDbDimension
  2
*D55
 10
271.4989300000002
 20
-314.1045903123286
 30
0.0
 11
311.7494650000002
 21
-308.1045903123286
 31
0.0
 70
    33
  1
 <> 
 71
     5
 42
80.50107000000002
  3
STANDARD1
100
AcDbAlignedDimension
 13
352.0000000000001
 23
5.000000000000124
 33
0.0
 14
271.4989300000002
 24
5.000000000000124
 34
0.0
  0
DIMENSION
  5
D1DB
330
1E
100
AcDbEntity
  8
30
  6
Continuous
100
AcDbDimension
  2
*D56
 10
496.9999999999995
 20
-313.8005350749281
 30
0.0
 11
424.4999999999998
 21
-307.8005350749281
 31
0.0
 70
    32
  1
 <> 
 71
     5
 42
144.999999999999
  3
STANDARD1
100
AcDbAlignedDimension
 13
352.0000000000001
 23
5.000000000000124
 33
0.0
 14
496.9999999999995
 24
-136.9999999999996
 34
0.0
100
AcDbRotatedDimension
  0
LWPOLYLINE
  5
D1DC
330
1E
100
AcDbEntity
  8
12
  6
DASHED
100
AcDbPolyline
 90
        4
 70
     0
 43
0.0
 10
468.9999999999995
 20
-112.9999999999996
 10
509.9999999999996
 20
-112.9999999999996
 10
509.9999999999996
 20
-120.9999999999995
 10
469.0
 20
-121.0000000000001
  0
LWPOLYLINE
  5
D1DD
330
1E
100
AcDbEntity
  8
12
  6
DASHED
100
AcDbPolyline
 90
        6
 70
     0
 43
0.0
 10
468.9999999999995
 20
-108.9999999999996
 10
468.3299999999997
 20
-108.9999999999996
 42
0.4142135623730733
 10
462.9999999999993
 20
-114.3299999999995
 10
463.0
 20
-119.6699999999996
 42
0.414213562373041
 10
468.3299999999997
 20
-124.9999999999996
 10
468.9999999999995
 20
-124.9999999999996
  0
LWPOLYLINE
  5
D1DE
330
1E
100
AcDbEntity
  8
12
  6
DASHED
100
AcDbPolyline
 90
        4
 70
     0
 43
0.0
 10
400.0
 20
-108.7499999999997
 10
468.9999999999995
 20
-108.7499999999997
 10
469.0
 20
-125.2499999999995
 10
400.0
 20
-125.2499999999995
  0
LWPOLYLINE
  5
D1DF
330
1E
100
AcDbEntity
  8
10
  6
Continuous
100
AcDbPolyline
 90
       13
 70
     0
 43
0.0
 10
496.9999999999995
 20
140.9999999999996
 10
400.0
 20
140.9999999999996
 10
400.0
 20
115.9999999999997
 10
397.4999999999997
 20
115.9999999999997
 10
397.4999999999997
 20
55.49999999999985
 10
394.0
 20
55.49999999999985
 10
394.0
 20
-46.49999999999979
 10
397.4999999999997
 20
-46.49999999999979
 10
397.4999999999997
 20
-106.9999999999996
 10
400.0
 20
-106.9999999999996
 10
400.0
 20
-131.9999999999996
 10
496.9999999999995
 20
-131.9999999999996
 10
496.9999999999995
 20
140.9999999999996
  0
DIMENSION
  5
D1E0
330
1E
100
AcDbEntity
  8
30
  6
Continuous
100
AcDbDimension
  2
*D57
 10
459.9999999999995
 20
-229.7660307105948
 30
0.0
 11
435.1999999999994
 21
-229.7660307105948
 31
0.0
 70
   160
  1
 <> 
 71
     5
 42
14.0
  3
STANDARD1
100
AcDbAlignedDimension
 13
445.9999999999993
 23
-216.9999999999995
 33
0.0
 14
459.9999999999995
 24
-216.9999999999995
 34
0.0
100
AcDbRotatedDimension
  0
LINE
  5
D1E1
330
1E
100
AcDbEntity
  8
17
  6
DASHDOT
100
AcDbLine
 10
441.4999999999993
 20
-196.9999999999995
 30
0.0
 11
464.4999999999995
 21
-196.9999999999995
 31
0.0
  0
LINE
  5
D1E2
330
1E
100
AcDbEntity
  8
17
  6
DASHDOT
100
AcDbLine
 10
441.4999999999993
 20
-164.9999999999996
 30
0.0
 11
464.4999999999995
 21
-164.9999999999996
 31
0.0
  0
LINE
  5
D1E3
330
1E
100
AcDbEntity
  8
17
  6
DASHDOT
100
AcDbLine
 10
441.4999999999993
 20
-156.9999999999996
 30
0.0
 11
464.4999999999995
 21
-156.9999999999996
 31
0.0
  0
LWPOLYLINE
  5
D1E4
330
1E
100
AcDbEntity
  8
10
  6
Continuous
100
AcDbPolyline
 90
        4
 70
     0
 43
0.0
 10
445.9999999999993
 20
-131.9999999999996
 10
445.9999999999993
 20
-211.9999999999995
 10
459.9999999999995
 20
-211.9999999999995
 10
459.9999999999995
 20
-131.9999999999996
  0
DIMENSION
  5
D1E5
330
1E
100
AcDbEntity
  8
30
  6
Continuous
100
AcDbDimension
  2
*D58
 10
496.9999999999995
 20
-229.7795442767013
 30
0.0
 11
478.4999999999993
 21
-223.7795442767015
 31
0.0
 70
    32
  1
 <> 
 71
     5
 42
36.99999999999993
  3
STANDARD1
100
AcDbAlignedDimension
 13
459.9999999999995
 23
-216.9999999999995
 33
0.0
 14
496.9999999999995
 24
-136.9999999999996
 34
0.0
100
AcDbRotatedDimension
  0
DIMENSION
  5
D1E6
330
1E
100
AcDbEntity
  8
30
  6
Continuous
100
AcDbDimension
  2
*D59
 10
464.9999999999995
 20
253.2374589999995
 30
0.0
 11
458.3143098912546
 21
258.3192861611819
 31
0.0
 70
   160
  1
<> 
 71
     5
 42
14.0
  3
STANDARD1
100
AcDbAlignedDimension
 13
450.9999999999995
 23
225.9999999999995
 33
0.0
 14
464.9999999999995
 24
225.9999999999995
 34
0.0
100
AcDbRotatedDimension
1001
ACAD
1000
DSTYLE
1002
{
1070
   172
1070
     1
1070
   279
1070
     2
1002
}
  0
LINE
  5
D1E7
330
1E
100
AcDbEntity
  8
17
  6
DASHDOT
100
AcDbLine
 10
446.4999999999995
 20
165.9999999999996
 30
0.0
 11
469.4999999999994
 21
165.9999999999996
 31
0.0
  0
LINE
  5
D1E8
330
1E
100
AcDbEntity
  8
17
  6
DASHDOT
100
AcDbLine
 10
446.4999999999995
 20
173.9999999999995
 30
0.0
 11
469.4999999999994
 21
173.9999999999995
 31
0.0
  0
LINE
  5
D1E9
330
1E
100
AcDbEntity
  8
17
  6
DASHDOT
100
AcDbLine
 10
446.4999999999995
 20
205.9999999999995
 30
0.0
 11
469.4999999999994
 21
205.9999999999995
 31
0.0
  0
LINE
  5
D1EA
330
1E
100
AcDbEntity
  8
16
100
AcDbLine
 10
510.9999999999997
 20
0.0000000000000071
 30
0.0
 11
334.6000000000001
 21
0.0000000000000071
 31
0.0
  0
ARC
  5
D1EB
330
1E
100
AcDbEntity
  8
10
  6
Continuous
100
AcDbCircle
 10
-307.2511350000002
 20
41.33240499999994
 30
0.0
 40
6.999999999999982
210
0.0
220
0.0
230
-1.0
100
AcDbArc
 50
58.99509599999733
 51
117.5859389999994
  0
ARC
  5
D1EC
330
1E
100
AcDbEntity
  8
10
  6
Continuous
100
AcDbCircle
 10
295.4035699999998
 20
61.04623499999989
 30
0.0
 40
15.99999999999996
100
AcDbArc
 50
19.39509599999772
 51
301.0049040000026
  0
ARC
  5
D1ED
330
1E
100
AcDbEntity
  8
30
  6
Continuous
100
AcDbCircle
 10
497.0018205528713
 20
3.806184726795642
 30
0.0
 40
225.5060555675516
100
AcDbArc
 50
165.1394483099088
 51
179.6966782288774
  0
LINE
  5
D1EE
330
1E
100
AcDbEntity
  8
10
  6
Continuous
100
AcDbLine
 10
315.6412850000001
 20
61.83740999999987
 30
0.0
 11
355.3530049999998
 21
53.38623500000002
 31
0.0
  0
LINE
  5
D1EF
330
1E
100
AcDbEntity
  8
10
  6
Continuous
100
AcDbLine
 10
382.2244749999999
 20
39.46057499999986
 30
0.0
 11
376.0594449999998
 21
22.33654499999999
 31
0.0
  0
LINE
  5
D1F0
330
1E
100
AcDbEntity
  8
10
  6
Continuous
100
AcDbLine
 10
386.7790399999998
 20
32.4003799999998
 30
0.0
 11
373.5343949999998
 21
37.16874500000009
 31
0.0
  0
LINE
  5
D1F1
330
1E
100
AcDbEntity
  8
10
  6
Continuous
100
AcDbLine
 10
386.381985
 20
24.04065499999996
 30
0.0
 11
370.8244900000001
 21
29.6416999999999
 31
0.0
  0
LINE
  5
D1F2
330
1E
100
AcDbEntity
  8
10
  6
Continuous
100
AcDbLine
 10
379.8159049999993
 20
44.57904999999999
 30
0.0
 11
355.3530049999998
 21
53.38623500000002
 31
0.0
  0
LINE
  5
D1F3
330
1E
100
AcDbEntity
  8
10
  6
Continuous
100
AcDbLine
 10
386.28987
 20
21.52302000000001
 30
0.0
 11
353.9224600000001
 21
33.17600499999992
 31
0.0
  0
LINE
  5
D1F4
330
1E
100
AcDbEntity
  8
10
  6
Continuous
100
AcDbLine
 10
386.924935
 20
34.89865499999996
 30
0.0
 11
358.2583050000001
 21
45.21927999999993
 31
0.0
  0
LINE
  5
D1F5
330
1E
100
AcDbEntity
  8
10
  6
Continuous
100
AcDbLine
 10
310.4926849999998
 20
47.53662499999989
 30
0.0
 11
346.4780699999995
 21
28.7351599999999
 31
0.0
  0
ARC
  5
D1F6
330
1E
100
AcDbEntity
  8
30
  6
Continuous
100
AcDbCircle
 10
496.9999999999995
 20
4.999999999999978
 30
0.0
 40
127.4999999999996
100
AcDbArc
 50
169.304221999999
 51
180.0
  0
ARC
  5
D1F7
330
1E
100
AcDbEntity
  8
30
  6
Continuous
100
AcDbCircle
 10
496.9999999999995
 20
4.999999999999978
 30
0.0
 40
144.9999999999995
100
AcDbArc
 50
169.304221999999
 51
180.0
  0
LINE
  5
D1F8
330
1E
100
AcDbEntity
  8
10
  6
Continuous
100
AcDbLine
 10
370.9409700000001
 20
19.92797499999992
 30
0.0
 11
346.4780699999995
 21
28.7351599999999
 31
0.0
  0
LINE
  5
D1F9
330
1E
100
AcDbEntity
  8
10
  6
Continuous
100
AcDbLine
 10
358.2583050000001
 20
45.21927999999993
 30
0.0
 11
353.9224600000001
 21
33.17600499999992
 31
0.0
  0
LINE
  5
D1FA
330
1E
100
AcDbEntity
  8
10
  6
Continuous
100
AcDbLine
 10
373.5343949999998
 20
37.16874500000009
 30
0.0
 11
370.8244900000001
 21
29.6416999999999
 31
0.0
  0
ARC
  5
D1FB
330
1E
100
AcDbEntity
  8
10
  6
Continuous
100
AcDbCircle
 10
372.29592
 20
23.6915
 30
0.0
 40
3.999999999999986
100
AcDbArc
 50
250.199999999999
 51
340.1999999999993
  0
LWPOLYLINE
  5
D1FC
330
1E
100
AcDbEntity
  8
10
  6
Continuous
100
AcDbPolyline
 90
        4
 70
     0
 43
0.0
 10
394.0
 20
44.99999999999988
 10
386.9999999999997
 20
44.99999999999988
 10
386.9999999999997
 20
-44.99999999999991
 10
394.0
 20
-44.99999999999991
  0
LINE
  5
D1FD
330
1E
100
AcDbEntity
  8
10
  6
Continuous
100
AcDbLine
 10
390.0
 20
-44.99999999999991
 30
0.0
 11
390.0
 21
44.99999999999984
 31
0.0
  0
ARC
  5
D1FE
330
1E
100
AcDbEntity
  8
10
  6
Continuous
100
AcDbCircle
 10
378.4609499999998
 20
40.81552999999987
 30
0.0
 40
3.999999999999986
100
AcDbArc
 50
340.1999999999993
 51
70.19999999999902
  0
ARC
  5
D1FF
330
1E
100
AcDbEntity
  8
10
  6
Continuous
100
AcDbCircle
 10
317.0983450000001
 20
68.68408499999985
 30
0.0
 40
6.999999999999982
100
AcDbArc
 50
199.3950959999976
 51
257.9859390000011
  0
DIMENSION
  5
D200
330
1E
100
AcDbEntity
  8
30
  6
Continuous
100
AcDbDimension
  2
*D48
 10
496.9999999999995
 20
252.9041249999997
 30
0.0
 11
480.9999999999995
 21
258.9041249999997
 31
0.0
 70
    32
  1
 <> 
 71
     5
 42
31.99999999999994
  3
STANDARD1
100
AcDbAlignedDimension
 13
464.9999999999995
 23
225.9999999999995
 33
0.0
 14
496.9999999999995
 24
145.9999999999998
 34
0.0
100
AcDbRotatedDimension
  0
DIMENSION
  5
D201
330
1E
100
AcDbEntity
  8
30
  6
Continuous
100
AcDbDimension
  2
*D49
 10
496.9999999999995
 20
-72.09587499999972
 30
0.0
 11
482.9999999999996
 21
-66.09587499999972
 31
0.0
 70
    32
  1
 <> 
 71
     5
 42
27.9999999999997
  3
STANDARD1
100
AcDbAlignedDimension
 13
468.9999999999995
 23
-103.7499999999996
 33
0.0
 14
496.9999999999995
 24
-78.34587499999968
 34
0.0
100
AcDbRotatedDimension
  0
LINE
  5
D202
330
1E
100
AcDbEntity
  8
12
  6
DASHED
100
AcDbLine
 10
460.6999999999998
 20
-116.9999999999997
 30
0.0
 11
512.9999999999994
 21
-116.9999999999997
 31
0.0
  0
DIMENSION
  5
D203
330
1E
100
AcDbEntity
  8
30
  6
Continuous
100
AcDbDimension
  2
*D50
 10
496.9999999999995
 20
-72.09587499999972
 30
0.0
 11
503.4999999999993
 21
-72.09587499999972
 31
0.0
 70
   160
  1
 <> 
 71
     5
 42
13.00000000000022
  3
STANDARD1
100
AcDbAlignedDimension
 13
509.9999999999996
 23
-107.9999999999996
 33
0.0
 14
496.9999999999995
 24
-78.34587499999972
 34
0.0
100
AcDbRotatedDimension
  0
LWPOLYLINE
  5
D204
330
1E
100
AcDbEntity
  8
10
  6
Continuous
100
AcDbPolyline
 90
        4
 70
     0
 43
0.0
 10
450.9999999999995
 20
140.9999999999996
 10
450.9999999999995
 20
220.9999999999995
 10
464.9999999999995
 20
220.9999999999995
 10
464.9999999999995
 20
140.9999999999996
  0
VIEWPORT
  5
9AC
330
1A
100
AcDbEntity
 67
     1
  8
0
  6
Continuous
100
AcDbViewport
 10
171.999535
 20
144.1384739999999
 30
0.0
 40
488.867686
 41
292.351491
 68
    -1
 69
     1
 12
171.999535
 22
144.1384739999999
 13
0.0
 23
0.0
 14
10.0
 24
10.0
 15
10.0
 25
10.0
 16
0.0
 26
0.0
 36
1.0
 17
0.0
 27
0.0
 37
0.0
 42
50.0
 43
0.0
 44
0.0
 45
292.351491
 50
0.0
 51
0.0
 72
   100
 90
    32800
  1

281
     0
 71
     1
 74
     0
110
0.0
120
0.0
130
0.0
111
1.0
121
0.0
131
0.0
112
0.0
122
1.0
132
0.0
 79
     0
146
0.0
  0
ENDSEC
  0
SECTION
  2
OBJECTS
  0
DICTIONARY
  5
C
330
0
100
AcDbDictionary
281
     1
  3
ACAD_GROUP
350
D
  3
ACAD_LAYOUT
350
19
  3
ACAD_MLINESTYLE
350
16
  3
ACAD_PLOTSETTINGS
350
18
  3
ACAD_PLOTSTYLENAME
350
E
  3
ACADDIM
350
6D5E
  3
ACDBHEADERROUNDTRIPXREC
350
D4C3
  3
ACDBVARIABLEDICTIONARY
350
5697
  0
DICTIONARY
  5
178
330
1E
100
AcDbDictionary
280
     1
281
     1
  3
ACAD_LAYOUTSELFREF
360
9011
  0
DICTIONARY
  5
17A
330
1A
100
AcDbDictionary
280
     1
281
     1
  3
ACAD_LAYOUTSELFREF
360
9010
  0
DICTIONARY
  5
D
102
{ACAD_REACTORS
330
C
102
}
330
C
100
AcDbDictionary
281
     1
  0
DICTIONARY
  5
19
102
{ACAD_REACTORS
330
C
102
}
330
C
100
AcDbDictionary
281
     1
  3
Model
350
904E
  3
ﾚｲｱｳﾄ1
350
904F
  0
DICTIONARY
  5
16
102
{ACAD_REACTORS
330
C
102
}
330
C
100
AcDbDictionary
281
     1
  3
STANDARD
350
17
  0
DICTIONARY
  5
18
102
{ACAD_REACTORS
330
C
102
}
330
C
100
AcDbDictionary
281
     1
  0
ACDBDICTIONARYWDFLT
  5
E
102
{ACAD_REACTORS
330
C
102
}
330
C
100
AcDbDictionary
281
     1
  3
Normal
350
F
100
AcDbDictionaryWithDefault
340
F
  0
XRECORD
  5
6D5E
102
{ACAD_REACTORS
330
C
102
}
330
C
100
AcDbXrecord
280
     1
 90
   990106
  3

 60
     0
 61
     0
 62
     1
 63
     3
 64
     0
 65
     0
 66
     0
 67
     3
 68
     1
 69
     0
 70
     0
 71
     0
 72
     0
 40
0.0
170
     0
340
7CA9
  0
DICTIONARY
  5
D4C3
102
{ACAD_REACTORS
330
C
102
}
330
C
100
AcDbDictionary
281
     1
  3
CEPSNTYPE
350
D4CD
  3
DIMSTYLEDATA
350
D4D1
  3
FINGERPRINTGUID
350
D4CE
  3
HYPERLINKBASE
350
D4C6
  3
INSUNITS
350
D4CC
  3
LAYOUTDICT
350
D4C8
  3
LWETCUNION
350
D4CB
  3
PLOTSETDICT
350
D4C9
  3
PLOTSTYLNAMDICT
350
D4CA
  3
PSVPSCALE
350
D4D0
  3
PUCSBASE
350
D4D4
  3
PUCSORGBACK
350
D4DA
  3
PUCSORGBOTTOM
350
D4D6
  3
PUCSORGFRONT
350
D4D9
  3
PUCSORGLEFT
350
D4D7
  3
PUCSORGRIGHT
350
D4D8
  3
PUCSORGTOP
350
D4D5
  3
PUCSORTHOREF
350
D4D2
  3
PUCSORTHOVIEW
350
D4D3
  3
STYLESHEET
350
D4C7
  3
TSTACKALIGN
350
D4C4
  3
TSTACKSIZE
350
D4C5
  3
UCSBASE
350
D4DD
  3
UCSORGBACK
350
D4E3
  3
UCSORGBOTTOM
350
D4DF
  3
UCSORGFRONT
350
D4E2
  3
UCSORGLEFT
350
D4E0
  3
UCSORGRIGHT
350
D4E1
  3
UCSORGTOP
350
D4DE
  3
UCSORTHOREF
350
D4DB
  3
UCSORTHOVIEW
350
D4DC
  3
VERSIONGUID
350
D4CF
  0
DICTIONARY
  5
5697
102
{ACAD_REACTORS
330
C
102
}
330
C
100
AcDbDictionary
281
     1
  3
DIMASSOC
350
5698
  0
XRECORD
  5
9011
102
{ACAD_REACTORS
330
178
102
}
330
178
100
AcDbXrecord
280
     1
340
1E
  0
XRECORD
  5
9010
102
{ACAD_REACTORS
330
17A
102
}
330
17A
100
AcDbXrecord
280
     1
340
1A
  0
LAYOUT
  5
904E
102
{ACAD_REACTORS
330
19
102
}
330
19
100
AcDbPlotSettings
  1

  2
自動 RICOH IPSiO NX760 RPCS (PRINT_SERV 上)
  4
A4
  6
OLE1
 40
5.873749732971191
 41
5.873747825622557
 42
5.873748779296875
 43
5.873748779296875
 44
209.9733276367186
 45
296.9259948730469
 46
21.89
 47
31.61
 48
0.0
 49
0.0
140
0.0
141
0.0
142
1.0
143
5.0
 70
 11940
 72
     1
 73
     0
 74
     1
  7
monochrome.ctb
 75
     0
147
0.2
148
187.1726961147458
149
672.200575597928
100
AcDbLayout
  1
Model
 70
     1
 71
     0
 10
0.0
 20
0.0
 11
12.0
 21
9.0
 12
0.0
 22
0.0
 32
0.0
 14
0.0
 24
0.0
 34
0.0
 15
0.0
 25
0.0
 35
0.0
146
0.0
 13
0.0
 23
0.0
 33
0.0
 16
1.0
 26
0.0
 36
0.0
 17
0.0
 27
1.0
 37
0.0
 76
     0
330
1E
  0
LAYOUT
  5
904F
102
{ACAD_REACTORS
330
19
102
}
330
19
100
AcDbPlotSettings
  1

  2
LBP5400
  4

  6

 40
0.0
 41
0.0
 42
0.0
 43
0.0
 44
0.0
 45
0.0
 46
0.0
 47
0.0
 48
0.0
 49
0.0
140
0.0
141
0.0
142
1.0
143
1.0
 70
   688
 72
     0
 73
     0
 74
     5
  7
monochrome.stb
 75
    16
147
1.0
148
0.0
149
0.0
100
AcDbLayout
  1
ﾚｲｱｳﾄ1
 70
     1
 71
     1
 10
-5.873749
 20
-5.87375
 11
204.099579
 21
291.1369009999999
 12
0.0
 22
0.0
 32
0.0
 14
4.273573
 24
5.205245999999998
 34
0.0
 15
194.610095
 25
283.0697009999996
 35
0.0
146
0.0
 13
0.0
 23
0.0
 33
0.0
 16
1.0
 26
0.0
 36
0.0
 17
0.0
 27
1.0
 37
0.0
 76
     0
330
1A
  0
MLINESTYLE
  5
17
102
{ACAD_REACTORS
330
16
102
}
330
16
100
AcDbMlineStyle
  2
STANDARD
 70
     0
  3

 62
   256
 51
90.0
 52
90.0
 71
     2
 49
0.5
 62
   256
  6
BYLAYER
 49
-0.5
 62
   256
  6
BYLAYER
  0
ACDBPLACEHOLDER
  5
F
102
{ACAD_REACTORS
330
E
102
}
330
E
  0
XRECORD
  5
D4CD
102
{ACAD_REACTORS
330
D4C3
102
}
330
D4C3
100
AcDbXrecord
280
     1
 90
        0
  0
XRECORD
  5
D4D1
102
{ACAD_REACTORS
330
D4C3
102
}
330
D4C3
100
AcDbXrecord
280
     1
1000
DSTYLE
1002
{
1070
   289
 70
     2
1070
   341
340
3B2
1070
   342
340
3B2
1002
}
  0
XRECORD
  5
D4CE
102
{ACAD_REACTORS
330
D4C3
102
}
330
D4C3
100
AcDbXrecord
280
     1
  1

  0
XRECORD
  5
D4C6
102
{ACAD_REACTORS
330
D4C3
102
}
330
D4C3
100
AcDbXrecord
280
     1
  1

  0
XRECORD
  5
D4CC
102
{ACAD_REACTORS
330
D4C3
102
}
330
D4C3
100
AcDbXrecord
280
     1
 90
        0
  0
XRECORD
  5
D4C8
102
{ACAD_REACTORS
330
D4C3
102
}
330
D4C3
100
AcDbXrecord
280
     1
340
19
  0
XRECORD
  5
D4CB
102
{ACAD_REACTORS
330
D4C3
102
}
330
D4C3
100
AcDbXrecord
280
     1
 90
    10781
  0
XRECORD
  5
D4C9
102
{ACAD_REACTORS
330
D4C3
102
}
330
D4C3
100
AcDbXrecord
280
     1
340
18
  0
XRECORD
  5
D4CA
102
{ACAD_REACTORS
330
D4C3
102
}
330
D4C3
100
AcDbXrecord
280
     1
340
E
  0
XRECORD
  5
D4D0
102
{ACAD_REACTORS
330
D4C3
102
}
330
D4C3
100
AcDbXrecord
280
     1
 40
0.0
  0
XRECORD
  5
D4D4
102
{ACAD_REACTORS
330
D4C3
102
}
330
D4C3
100
AcDbXrecord
280
     1
340
0
  0
XRECORD
  5
D4DA
102
{ACAD_REACTORS
330
D4C3
102
}
330
D4C3
100
AcDbXrecord
280
     1
 10
0.0
 20
0.0
 30
0.0
  0
XRECORD
  5
D4D6
102
{ACAD_REACTORS
330
D4C3
102
}
330
D4C3
100
AcDbXrecord
280
     1
 10
0.0
 20
0.0
 30
0.0
  0
XRECORD
  5
D4D9
102
{ACAD_REACTORS
330
D4C3
102
}
330
D4C3
100
AcDbXrecord
280
     1
 10
0.0
 20
0.0
 30
0.0
  0
XRECORD
  5
D4D7
102
{ACAD_REACTORS
330
D4C3
102
}
330
D4C3
100
AcDbXrecord
280
     1
 10
0.0
 20
0.0
 30
0.0
  0
XRECORD
  5
D4D8
102
{ACAD_REACTORS
330
D4C3
102
}
330
D4C3
100
AcDbXrecord
280
     1
 10
0.0
 20
0.0
 30
0.0
  0
XRECORD
  5
D4D5
102
{ACAD_REACTORS
330
D4C3
102
}
330
D4C3
100
AcDbXrecord
280
     1
 10
0.0
 20
0.0
 30
0.0
  0
XRECORD
  5
D4D2
102
{ACAD_REACTORS
330
D4C3
102
}
330
D4C3
100
AcDbXrecord
280
     1
340
0
  0
XRECORD
  5
D4D3
102
{ACAD_REACTORS
330
D4C3
102
}
330
D4C3
100
AcDbXrecord
280
     1
 70
     0
  0
XRECORD
  5
D4C7
102
{ACAD_REACTORS
330
D4C3
102
}
330
D4C3
100
AcDbXrecord
280
     1
  1
monochrome.ctb
  0
XRECORD
  5
D4C4
102
{ACAD_REACTORS
330
D4C3
102
}
330
D4C3
100
AcDbXrecord
280
     1
 90
        1
  0
XRECORD
  5
D4C5
102
{ACAD_REACTORS
330
D4C3
102
}
330
D4C3
100
AcDbXrecord
280
     1
 90
       70
  0
XRECORD
  5
D4DD
102
{ACAD_REACTORS
330
D4C3
102
}
330
D4C3
100
AcDbXrecord
280
     1
340
0
  0
XRECORD
  5
D4E3
102
{ACAD_REACTORS
330
D4C3
102
}
330
D4C3
100
AcDbXrecord
280
     1
 10
0.0
 20
0.0
 30
0.0
  0
XRECORD
  5
D4DF
102
{ACAD_REACTORS
330
D4C3
102
}
330
D4C3
100
AcDbXrecord
280
     1
 10
0.0
 20
0.0
 30
0.0
  0
XRECORD
  5
D4E2
102
{ACAD_REACTORS
330
D4C3
102
}
330
D4C3
100
AcDbXrecord
280
     1
 10
0.0
 20
0.0
 30
0.0
  0
XRECORD
  5
D4E0
102
{ACAD_REACTORS
330
D4C3
102
}
330
D4C3
100
AcDbXrecord
280
     1
 10
0.0
 20
0.0
 30
0.0
  0
XRECORD
  5
D4E1
102
{ACAD_REACTORS
330
D4C3
102
}
330
D4C3
100
AcDbXrecord
280
     1
 10
0.0
 20
0.0
 30
0.0
  0
XRECORD
  5
D4DE
102
{ACAD_REACTORS
330
D4C3
102
}
330
D4C3
100
AcDbXrecord
280
     1
 10
0.0
 20
0.0
 30
0.0
  0
XRECORD
  5
D4DB
102
{ACAD_REACTORS
330
D4C3
102
}
330
D4C3
100
AcDbXrecord
280
     1
340
0
  0
XRECORD
  5
D4DC
102
{ACAD_REACTORS
330
D4C3
102
}
330
D4C3
100
AcDbXrecord
280
     1
 70
     0
  0
XRECORD
  5
D4CF
102
{ACAD_REACTORS
330
D4C3
102
}
330
D4C3
100
AcDbXrecord
280
     1
  1
{4FEEA43F-7646-4BCB-81B5-E1D67146C940}
  0
DICTIONARYVAR
  5
5698
102
{ACAD_REACTORS
330
5697
102
}
330
5697
100
DictionaryVariables
280
     0
  1
1
  0
ENDSEC
  0
EOF
