  0
SECTION
  2
HEADER
  9
$ACADVER
  1
AC1015
  9
$ACADMAINTVER
 70
    10
  9
$DWGCODEPAGE
  3
ANSI_932
  9
$INSBASE
 10
0.0
 20
0.0
 30
0.0
  9
$EXTMIN
 10
-167.9539
 20
-734.5958750000002
 30
0.0
  9
$EXTMAX
 10
837.4539
 20
661.0958749999997
 30
0.0
  9
$LIMMIN
 10
-391.0
 20
-1004.0
  9
$LIMMAX
 10
1094.0
 20
836.0
  9
$ORTHOMODE
 70
     1
  9
$REGENMODE
 70
     1
  9
$FILLMODE
 70
     1
  9
$QTEXTMODE
 70
     0
  9
$MIRRTEXT
 70
     1
  9
$LTSCALE
 40
30.0
  9
$ATTMODE
 70
     1
  9
$TEXTSIZE
 40
5.0
  9
$TRACEWID
 40
0.05
  9
$TEXTSTYLE
  7
STANDARD1
  9
$CLAYER
  8
10
  9
$CELTYPE
  6
CONTINUOUS
  9
$CECOLOR
 62
   256
  9
$CELTSCALE
 40
1.0
  9
$DISPSILH
 70
     0
  9
$DIMSCALE
 40
1.0
  9
$DIMASZ
 40
2.0
  9
$DIMEXO
 40
3.0
  9
$DIMDLI
 40
0.5
  9
$DIMRND
 40
0.0
  9
$DIMDLE
 40
0.0
  9
$DIMEXE
 40
0.5
  9
$DIMTP
 40
0.0
  9
$DIMTM
 40
0.0
  9
$DIMTXT
 40
6.0
  9
$DIMCEN
 40
0.09
  9
$DIMTSZ
 40
0.0
  9
$DIMTOL
 70
     0
  9
$DIMLIM
 70
     0
  9
$DIMTIH
 70
     0
  9
$DIMTOH
 70
     1
  9
$DIMSE1
 70
     0
  9
$DIMSE2
 70
     0
  9
$DIMTAD
 70
     3
  9
$DIMZIN
 70
    12
  9
$DIMBLK
  1
OPEN
  9
$DIMASO
 70
     1
  9
$DIMSHO
 70
     1
  9
$DIMPOST
  1

  9
$DIMAPOST
  1

  9
$DIMALT
 70
     0
  9
$DIMALTD
 70
     2
  9
$DIMALTF
 40
25.4
  9
$DIMLFAC
 40
1.0
  9
$DIMTOFL
 70
     0
  9
$DIMTVP
 40
0.0
  9
$DIMTIX
 70
     0
  9
$DIMSOXD
 70
     0
  9
$DIMSAH
 70
     0
  9
$DIMBLK1
  1

  9
$DIMBLK2
  1

  9
$DIMSTYLE
  2
STANDARD1
  9
$DIMCLRD
 70
     0
  9
$DIMCLRE
 70
     0
  9
$DIMCLRT
 70
     0
  9
$DIMTFAC
 40
1.0
  9
$DIMGAP
 40
3.0
  9
$DIMJUST
 70
     0
  9
$DIMSD1
 70
     0
  9
$DIMSD2
 70
     0
  9
$DIMTOLJ
 70
     1
  9
$DIMTZIN
 70
     0
  9
$DIMALTZ
 70
     0
  9
$DIMALTTZ
 70
     0
  9
$DIMUPT
 70
     0
  9
$DIMDEC
 70
     1
  9
$DIMTDEC
 70
     1
  9
$DIMALTU
 70
     2
  9
$DIMALTTD
 70
     2
  9
$DIMTXSTY
  7
STANDARD
  9
$DIMAUNIT
 70
     0
  9
$DIMADEC
 70
     0
  9
$DIMALTRND
 40
0.0
  9
$DIMAZIN
 70
     0
  9
$DIMDSEP
 70
    46
  9
$DIMATFIT
 70
     2
  9
$DIMFRAC
 70
     0
  9
$DIMLDRBLK
  1
OPEN
  9
$DIMLUNIT
 70
     2
  9
$DIMLWD
 70
    -2
  9
$DIMLWE
 70
    -2
  9
$DIMTMOVE
 70
     0
  9
$LUNITS
 70
     2
  9
$LUPREC
 70
     4
  9
$SKETCHINC
 40
0.1
  9
$FILLETRAD
 40
0.0
  9
$AUNITS
 70
     0
  9
$AUPREC
 70
     0
  9
$MENU
  1
.
  9
$ELEVATION
 40
0.0
  9
$PELEVATION
 40
0.0
  9
$THICKNESS
 40
0.0
  9
$LIMCHECK
 70
     0
  9
$CHAMFERA
 40
0.0
  9
$CHAMFERB
 40
0.0
  9
$CHAMFERC
 40
0.0
  9
$CHAMFERD
 40
0.0
  9
$SKPOLY
 70
     0
  9
$TDCREATE
 40
2452286.555658657
  9
$TDUCREATE
 40
2452286.180658657
  9
$TDUPDATE
 40
2455952.567018044
  9
$TDUUPDATE
 40
2455952.192018044
  9
$TDINDWG
 40
1.4371033912
  9
$TDUSRTIMER
 40
1.4371017708
  9
$USRTIMER
 70
     1
  9
$ANGBASE
 50
0.0
  9
$ANGDIR
 70
     0
  9
$PDMODE
 70
     0
  9
$PDSIZE
 40
0.0
  9
$PLINEWID
 40
0.0
  9
$SPLFRAME
 70
     0
  9
$SPLINETYPE
 70
     6
  9
$SPLINESEGS
 70
     8
  9
$HANDSEED
  5
D1E0
  9
$SURFTAB1
 70
     6
  9
$SURFTAB2
 70
     6
  9
$SURFTYPE
 70
     6
  9
$SURFU
 70
     6
  9
$SURFV
 70
     6
  9
$UCSBASE
  2

  9
$UCSNAME
  2

  9
$UCSORG
 10
0.0
 20
0.0
 30
0.0
  9
$UCSXDIR
 10
1.0
 20
0.0
 30
0.0
  9
$UCSYDIR
 10
0.0
 20
1.0
 30
0.0
  9
$UCSORTHOREF
  2

  9
$UCSORTHOVIEW
 70
     0
  9
$UCSORGTOP
 10
0.0
 20
0.0
 30
0.0
  9
$UCSORGBOTTOM
 10
0.0
 20
0.0
 30
0.0
  9
$UCSORGLEFT
 10
0.0
 20
0.0
 30
0.0
  9
$UCSORGRIGHT
 10
0.0
 20
0.0
 30
0.0
  9
$UCSORGFRONT
 10
0.0
 20
0.0
 30
0.0
  9
$UCSORGBACK
 10
0.0
 20
0.0
 30
0.0
  9
$PUCSBASE
  2

  9
$PUCSNAME
  2

  9
$PUCSORG
 10
0.0
 20
0.0
 30
0.0
  9
$PUCSXDIR
 10
1.0
 20
0.0
 30
0.0
  9
$PUCSYDIR
 10
0.0
 20
1.0
 30
0.0
  9
$PUCSORTHOREF
  2

  9
$PUCSORTHOVIEW
 70
     0
  9
$PUCSORGTOP
 10
0.0
 20
0.0
 30
0.0
  9
$PUCSORGBOTTOM
 10
0.0
 20
0.0
 30
0.0
  9
$PUCSORGLEFT
 10
0.0
 20
0.0
 30
0.0
  9
$PUCSORGRIGHT
 10
0.0
 20
0.0
 30
0.0
  9
$PUCSORGFRONT
 10
0.0
 20
0.0
 30
0.0
  9
$PUCSORGBACK
 10
0.0
 20
0.0
 30
0.0
  9
$USERI1
 70
     0
  9
$USERI2
 70
     0
  9
$USERI3
 70
     0
  9
$USERI4
 70
     0
  9
$USERI5
 70
     0
  9
$USERR1
 40
0.0
  9
$USERR2
 40
0.0
  9
$USERR3
 40
0.0
  9
$USERR4
 40
0.0
  9
$USERR5
 40
0.0
  9
$WORLDVIEW
 70
     1
  9
$SHADEDGE
 70
     3
  9
$SHADEDIF
 70
    70
  9
$TILEMODE
 70
     1
  9
$MAXACTVP
 70
    48
  9
$PINSBASE
 10
0.0
 20
0.0
 30
0.0
  9
$PLIMCHECK
 70
     0
  9
$PEXTMIN
 10
4.273573370203961
 20
5.205246163471485
 30
0.0
  9
$PEXTMAX
 10
194.6100952986349
 20
283.0697008572913
 30
0.0
  9
$PLIMMIN
 10
-5.873748779296875
 20
-5.873749732971191
  9
$PLIMMAX
 10
204.0995788574218
 20
291.1369009017943
  9
$UNITMODE
 70
     0
  9
$VISRETAIN
 70
     1
  9
$PLINEGEN
 70
     0
  9
$PSLTSCALE
 70
     1
  9
$TREEDEPTH
 70
  3020
  9
$CMLSTYLE
  2
STANDARD
  9
$CMLJUST
 70
     0
  9
$CMLSCALE
 40
1.0
  9
$PROXYGRAPHICS
 70
     1
  9
$MEASUREMENT
 70
     0
  9
$CELWEIGHT
370
    -1
  9
$ENDCAPS
280
     0
  9
$JOINSTYLE
280
     0
  9
$LWDISPLAY
290
     0
  9
$INSUNITS
 70
     0
  9
$HYPERLINKBASE
  1

  9
$STYLESHEET
  1
MONOCHROME.CTB
  9
$XEDIT
290
     1
  9
$CEPSNTYPE
380
     0
  9
$PSTYLEMODE
290
     1
  9
$FINGERPRINTGUID
  2

  9
$VERSIONGUID
  2
{252B57C5-D259-43B4-B210-A2E14CC9A40F}
  9
$EXTNAMES
290
     1
  9
$PSVPSCALE
 40
0.0
  9
$OLESTARTUP
290
     0
  0
ENDSEC
  0
SECTION
  2
CLASSES
  0
CLASS
  1
ACDBDICTIONARYWDFLT
  2
AcDbDictionaryWithDefault
  3
AutoCAD 2000
 90
        0
280
     0
281
     0
  0
CLASS
  1
ACDBPLACEHOLDER
  2
AcDbPlaceHolder
  3
AutoCAD 2000
 90
        0
280
     0
281
     0
  0
CLASS
  1
LAYOUT
  2
AcDbLayout
  3
AutoCAD 2000
 90
        0
280
     0
281
     0
  0
CLASS
  1
LONG_TRANSACTION
  2
AcDbLongTransaction
  3
AutoCAD 2000
 90
    32768
280
     0
281
     0
  0
CLASS
  1
LWPOLYLINE
  2
AcDbPolyline
  3
AutoCAD 2000
 90
    32768
280
     0
281
     1
  0
CLASS
  1
HATCH
  2
AcDbHatch
  3
AutoCAD 2000
 90
    32768
280
     0
281
     1
  0
CLASS
  1
XRECORD
  2
AcDbXrecord
  3
AutoCAD 2000
 90
    32768
280
     0
281
     0
  0
CLASS
  1
LONG_TRANSACTION
  2
AcDbLongTransaction
  3
AutoCAD 2000
 90
    32768
280
     0
281
     0
  0
CLASS
  1
LWPOLYLINE
  2
AcDbPolyline
  3
AutoCAD 2000
 90
    32768
280
     0
281
     1
  0
CLASS
  1
HATCH
  2
AcDbHatch
  3
AutoCAD 2000
 90
    32768
280
     0
281
     1
  0
CLASS
  1
XRECORD
  2
AcDbXrecord
  3
AutoCAD 2000
 90
    32768
280
     0
281
     0
  0
CLASS
  1
LONG_TRANSACTION
  2
AcDbLongTransaction
  3
AutoCAD 2000
 90
    32768
280
     0
281
     0
  0
CLASS
  1
LWPOLYLINE
  2
AcDbPolyline
  3
AutoCAD 2000
 90
    32768
280
     0
281
     1
  0
CLASS
  1
HATCH
  2
AcDbHatch
  3
AutoCAD 2000
 90
    32768
280
     0
281
     1
  0
CLASS
  1
XRECORD
  2
AcDbXrecord
  3
AutoCAD 2000
 90
    32768
280
     0
281
     0
  0
CLASS
  1
LONG_TRANSACTION
  2
AcDbLongTransaction
  3
AutoCAD 2000
 90
    32768
280
     0
281
     0
  0
CLASS
  1
LWPOLYLINE
  2
AcDbPolyline
  3
AutoCAD 2000
 90
    32768
280
     0
281
     1
  0
CLASS
  1
HATCH
  2
AcDbHatch
  3
AutoCAD 2000
 90
    32768
280
     0
281
     1
  0
CLASS
  1
XRECORD
  2
AcDbXrecord
  3
AutoCAD 2000
 90
    32768
280
     0
281
     0
  0
CLASS
  1
LONG_TRANSACTION
  2
AcDbLongTransaction
  3
AutoCAD 2000
 90
    32768
280
     0
281
     0
  0
CLASS
  1
LWPOLYLINE
  2
AcDbPolyline
  3
AutoCAD 2000
 90
    32768
280
     0
281
     1
  0
CLASS
  1
HATCH
  2
AcDbHatch
  3
AutoCAD 2000
 90
    32768
280
     0
281
     1
  0
CLASS
  1
XRECORD
  2
AcDbXrecord
  3
AutoCAD 2000
 90
    32768
280
     0
281
     0
  0
CLASS
  1
LONG_TRANSACTION
  2
AcDbLongTransaction
  3
AutoCAD 2000
 90
    32768
280
     0
281
     0
  0
CLASS
  1
LWPOLYLINE
  2
AcDbPolyline
  3
AutoCAD 2000
 90
    32768
280
     0
281
     1
  0
CLASS
  1
HATCH
  2
AcDbHatch
  3
AutoCAD 2000
 90
    32768
280
     0
281
     1
  0
CLASS
  1
XRECORD
  2
AcDbXrecord
  3
AutoCAD 2000
 90
    32768
280
     0
281
     0
  0
CLASS
  1
LONG_TRANSACTION
  2
AcDbLongTransaction
  3
AutoCAD 2000
 90
    32768
280
     0
281
     0
  0
CLASS
  1
LWPOLYLINE
  2
AcDbPolyline
  3
AutoCAD 2000
 90
    32768
280
     0
281
     1
  0
CLASS
  1
HATCH
  2
AcDbHatch
  3
AutoCAD 2000
 90
    32768
280
     0
281
     1
  0
CLASS
  1
XRECORD
  2
AcDbXrecord
  3
AutoCAD 2000
 90
    32768
280
     0
281
     0
  0
CLASS
  1
LONG_TRANSACTION
  2
AcDbLongTransaction
  3
AutoCAD 2000
 90
    32768
280
     0
281
     0
  0
CLASS
  1
LWPOLYLINE
  2
AcDbPolyline
  3
AutoCAD 2000
 90
    32768
280
     0
281
     1
  0
CLASS
  1
HATCH
  2
AcDbHatch
  3
AutoCAD 2000
 90
    32768
280
     0
281
     1
  0
CLASS
  1
XRECORD
  2
AcDbXrecord
  3
AutoCAD 2000
 90
    32768
280
     0
281
     0
  0
CLASS
  1
LONG_TRANSACTION
  2
AcDbLongTransaction
  3
AutoCAD 2000
 90
    32768
280
     0
281
     0
  0
CLASS
  1
LWPOLYLINE
  2
AcDbPolyline
  3
AutoCAD 2000
 90
    32768
280
     0
281
     1
  0
CLASS
  1
HATCH
  2
AcDbHatch
  3
AutoCAD 2000
 90
    32768
280
     0
281
     1
  0
CLASS
  1
XRECORD
  2
AcDbXrecord
  3
AutoCAD 2000
 90
    32768
280
     0
281
     0
  0
CLASS
  1
LONG_TRANSACTION
  2
AcDbLongTransaction
  3
AutoCAD 2000
 90
    32768
280
     0
281
     0
  0
CLASS
  1
LWPOLYLINE
  2
AcDbPolyline
  3
AutoCAD 2000
 90
    32768
280
     0
281
     1
  0
CLASS
  1
HATCH
  2
AcDbHatch
  3
AutoCAD 2000
 90
    32768
280
     0
281
     1
  0
CLASS
  1
XRECORD
  2
AcDbXrecord
  3
AutoCAD 2000
 90
    32768
280
     0
281
     0
  0
CLASS
  1
LONG_TRANSACTION
  2
AcDbLongTransaction
  3
AutoCAD 2000
 90
    32768
280
     0
281
     0
  0
CLASS
  1
LWPOLYLINE
  2
AcDbPolyline
  3
AutoCAD 2000
 90
    32768
280
     0
281
     1
  0
CLASS
  1
HATCH
  2
AcDbHatch
  3
AutoCAD 2000
 90
    32768
280
     0
281
     1
  0
CLASS
  1
XRECORD
  2
AcDbXrecord
  3
AutoCAD 2000
 90
    32768
280
     0
281
     0
  0
CLASS
  1
LONG_TRANSACTION
  2
AcDbLongTransaction
  3
AutoCAD 2000
 90
    32768
280
     0
281
     0
  0
CLASS
  1
LWPOLYLINE
  2
AcDbPolyline
  3
AutoCAD 2000
 90
    32768
280
     0
281
     1
  0
CLASS
  1
HATCH
  2
AcDbHatch
  3
AutoCAD 2000
 90
    32768
280
     0
281
     1
  0
CLASS
  1
XRECORD
  2
AcDbXrecord
  3
AutoCAD 2000
 90
    32768
280
     0
281
     0
  0
CLASS
  1
LONG_TRANSACTION
  2
AcDbLongTransaction
  3
AutoCAD 2000
 90
    32768
280
     0
281
     0
  0
CLASS
  1
LWPOLYLINE
  2
AcDbPolyline
  3
AutoCAD 2000
 90
    32768
280
     0
281
     1
  0
CLASS
  1
HATCH
  2
AcDbHatch
  3
AutoCAD 2000
 90
    32768
280
     0
281
     1
  0
CLASS
  1
XRECORD
  2
AcDbXrecord
  3
AutoCAD 2000
 90
    32768
280
     0
281
     0
  0
CLASS
  1
LONG_TRANSACTION
  2
AcDbLongTransaction
  3
AutoCAD 2000
 90
    32768
280
     0
281
     0
  0
CLASS
  1
LWPOLYLINE
  2
AcDbPolyline
  3
AutoCAD 2000
 90
    32768
280
     0
281
     1
  0
CLASS
  1
HATCH
  2
AcDbHatch
  3
AutoCAD 2000
 90
    32768
280
     0
281
     1
  0
CLASS
  1
XRECORD
  2
AcDbXrecord
  3
AutoCAD 2000
 90
    32768
280
     0
281
     0
  0
CLASS
  1
LONG_TRANSACTION
  2
AcDbLongTransaction
  3
AutoCAD 2000
 90
    32768
280
     0
281
     0
  0
CLASS
  1
LWPOLYLINE
  2
AcDbPolyline
  3
AutoCAD 2000
 90
    32768
280
     0
281
     1
  0
CLASS
  1
HATCH
  2
AcDbHatch
  3
AutoCAD 2000
 90
    32768
280
     0
281
     1
  0
CLASS
  1
XRECORD
  2
AcDbXrecord
  3
AutoCAD 2000
 90
    32768
280
     0
281
     0
  0
CLASS
  1
LONG_TRANSACTION
  2
AcDbLongTransaction
  3
AutoCAD 2000
 90
    32768
280
     0
281
     0
  0
CLASS
  1
LWPOLYLINE
  2
AcDbPolyline
  3
AutoCAD 2000
 90
    32768
280
     0
281
     1
  0
CLASS
  1
HATCH
  2
AcDbHatch
  3
AutoCAD 2000
 90
    32768
280
     0
281
     1
  0
CLASS
  1
XRECORD
  2
AcDbXrecord
  3
AutoCAD 2000
 90
    32768
280
     0
281
     0
  0
CLASS
  1
LONG_TRANSACTION
  2
AcDbLongTransaction
  3
AutoCAD 2000
 90
    32768
280
     0
281
     0
  0
CLASS
  1
LWPOLYLINE
  2
AcDbPolyline
  3
AutoCAD 2000
 90
    32768
280
     0
281
     1
  0
CLASS
  1
HATCH
  2
AcDbHatch
  3
AutoCAD 2000
 90
    32768
280
     0
281
     1
  0
CLASS
  1
XRECORD
  2
AcDbXrecord
  3
AutoCAD 2000
 90
    32768
280
     0
281
     0
  0
CLASS
  1
LONG_TRANSACTION
  2
AcDbLongTransaction
  3
AutoCAD 2000
 90
    32768
280
     0
281
     0
  0
CLASS
  1
LWPOLYLINE
  2
AcDbPolyline
  3
AutoCAD 2000
 90
    32768
280
     0
281
     1
  0
CLASS
  1
HATCH
  2
AcDbHatch
  3
AutoCAD 2000
 90
    32768
280
     0
281
     1
  0
CLASS
  1
XRECORD
  2
AcDbXrecord
  3
AutoCAD 2000
 90
    32768
280
     0
281
     0
  0
CLASS
  1
LONG_TRANSACTION
  2
AcDbLongTransaction
  3
AutoCAD 2000
 90
    32768
280
     0
281
     0
  0
CLASS
  1
LWPOLYLINE
  2
AcDbPolyline
  3
AutoCAD 2000
 90
    32768
280
     0
281
     1
  0
CLASS
  1
HATCH
  2
AcDbHatch
  3
AutoCAD 2000
 90
    32768
280
     0
281
     1
  0
CLASS
  1
XRECORD
  2
AcDbXrecord
  3
AutoCAD 2000
 90
    32768
280
     0
281
     0
  0
CLASS
  1
LONG_TRANSACTION
  2
AcDbLongTransaction
  3
AutoCAD 2000
 90
    32768
280
     0
281
     0
  0
CLASS
  1
LWPOLYLINE
  2
AcDbPolyline
  3
AutoCAD 2000
 90
    32768
280
     0
281
     1
  0
CLASS
  1
HATCH
  2
AcDbHatch
  3
AutoCAD 2000
 90
    32768
280
     0
281
     1
  0
CLASS
  1
XRECORD
  2
AcDbXrecord
  3
AutoCAD 2000
 90
    32768
280
     0
281
     0
  0
CLASS
  1
LONG_TRANSACTION
  2
AcDbLongTransaction
  3
AutoCAD 2000
 90
    32768
280
     0
281
     0
  0
CLASS
  1
LWPOLYLINE
  2
AcDbPolyline
  3
AutoCAD 2000
 90
    32768
280
     0
281
     1
  0
CLASS
  1
HATCH
  2
AcDbHatch
  3
AutoCAD 2000
 90
    32768
280
     0
281
     1
  0
CLASS
  1
XRECORD
  2
AcDbXrecord
  3
AutoCAD 2000
 90
    32768
280
     0
281
     0
  0
CLASS
  1
LONG_TRANSACTION
  2
AcDbLongTransaction
  3
AutoCAD 2000
 90
    32768
280
     0
281
     0
  0
CLASS
  1
LWPOLYLINE
  2
AcDbPolyline
  3
AutoCAD 2000
 90
    32768
280
     0
281
     1
  0
CLASS
  1
HATCH
  2
AcDbHatch
  3
AutoCAD 2000
 90
    32768
280
     0
281
     1
  0
CLASS
  1
XRECORD
  2
AcDbXrecord
  3
AutoCAD 2000
 90
    32768
280
     0
281
     0
  0
CLASS
  1
LONG_TRANSACTION
  2
AcDbLongTransaction
  3
AutoCAD 2000
 90
    32768
280
     0
281
     0
  0
CLASS
  1
LWPOLYLINE
  2
AcDbPolyline
  3
AutoCAD 2000
 90
    32768
280
     0
281
     1
  0
CLASS
  1
HATCH
  2
AcDbHatch
  3
AutoCAD 2000
 90
    32768
280
     0
281
     1
  0
CLASS
  1
XRECORD
  2
AcDbXrecord
  3
AutoCAD 2000
 90
    32768
280
     0
281
     0
  0
CLASS
  1
LONG_TRANSACTION
  2
AcDbLongTransaction
  3
AutoCAD 2000
 90
    32768
280
     0
281
     0
  0
CLASS
  1
LWPOLYLINE
  2
AcDbPolyline
  3
AutoCAD 2000
 90
    32768
280
     0
281
     1
  0
CLASS
  1
HATCH
  2
AcDbHatch
  3
AutoCAD 2000
 90
    32768
280
     0
281
     1
  0
CLASS
  1
XRECORD
  2
AcDbXrecord
  3
AutoCAD 2000
 90
    32768
280
     0
281
     0
  0
CLASS
  1
LONG_TRANSACTION
  2
AcDbLongTransaction
  3
AutoCAD 2000
 90
    32768
280
     0
281
     0
  0
CLASS
  1
LWPOLYLINE
  2
AcDbPolyline
  3
AutoCAD 2000
 90
    32768
280
     0
281
     1
  0
CLASS
  1
HATCH
  2
AcDbHatch
  3
AutoCAD 2000
 90
    32768
280
     0
281
     1
  0
CLASS
  1
XRECORD
  2
AcDbXrecord
  3
AutoCAD 2000
 90
    32768
280
     0
281
     0
  0
CLASS
  1
LONG_TRANSACTION
  2
AcDbLongTransaction
  3
AutoCAD 2000
 90
    32768
280
     0
281
     0
  0
CLASS
  1
LWPOLYLINE
  2
AcDbPolyline
  3
AutoCAD 2000
 90
    32768
280
     0
281
     1
  0
CLASS
  1
HATCH
  2
AcDbHatch
  3
AutoCAD 2000
 90
    32768
280
     0
281
     1
  0
CLASS
  1
XRECORD
  2
AcDbXrecord
  3
AutoCAD 2000
 90
    32768
280
     0
281
     0
  0
CLASS
  1
LONG_TRANSACTION
  2
AcDbLongTransaction
  3
AutoCAD 2000
 90
    32768
280
     0
281
     0
  0
CLASS
  1
LWPOLYLINE
  2
AcDbPolyline
  3
AutoCAD 2000
 90
    32768
280
     0
281
     1
  0
CLASS
  1
HATCH
  2
AcDbHatch
  3
AutoCAD 2000
 90
    32768
280
     0
281
     1
  0
CLASS
  1
XRECORD
  2
AcDbXrecord
  3
AutoCAD 2000
 90
    32768
280
     0
281
     0
  0
CLASS
  1
LONG_TRANSACTION
  2
AcDbLongTransaction
  3
AutoCAD 2000
 90
    32768
280
     0
281
     0
  0
CLASS
  1
LWPOLYLINE
  2
AcDbPolyline
  3
AutoCAD 2000
 90
    32768
280
     0
281
     1
  0
CLASS
  1
HATCH
  2
AcDbHatch
  3
AutoCAD 2000
 90
    32768
280
     0
281
     1
  0
CLASS
  1
XRECORD
  2
AcDbXrecord
  3
AutoCAD 2000
 90
    32768
280
     0
281
     0
  0
CLASS
  1
LONG_TRANSACTION
  2
AcDbLongTransaction
  3
AutoCAD 2000
 90
    32768
280
     0
281
     0
  0
CLASS
  1
LWPOLYLINE
  2
AcDbPolyline
  3
AutoCAD 2000
 90
    32768
280
     0
281
     1
  0
CLASS
  1
HATCH
  2
AcDbHatch
  3
AutoCAD 2000
 90
    32768
280
     0
281
     1
  0
CLASS
  1
XRECORD
  2
AcDbXrecord
  3
AutoCAD 2000
 90
    32768
280
     0
281
     0
  0
CLASS
  1
LONG_TRANSACTION
  2
AcDbLongTransaction
  3
AutoCAD 2000
 90
    32768
280
     0
281
     0
  0
CLASS
  1
LWPOLYLINE
  2
AcDbPolyline
  3
AutoCAD 2000
 90
    32768
280
     0
281
     1
  0
CLASS
  1
HATCH
  2
AcDbHatch
  3
AutoCAD 2000
 90
    32768
280
     0
281
     1
  0
CLASS
  1
XRECORD
  2
AcDbXrecord
  3
AutoCAD 2000
 90
    32768
280
     0
281
     0
  0
CLASS
  1
LONG_TRANSACTION
  2
AcDbLongTransaction
  3
AutoCAD 2000
 90
    32768
280
     0
281
     0
  0
CLASS
  1
LWPOLYLINE
  2
AcDbPolyline
  3
AutoCAD 2000
 90
    32768
280
     0
281
     1
  0
CLASS
  1
HATCH
  2
AcDbHatch
  3
AutoCAD 2000
 90
    32768
280
     0
281
     1
  0
CLASS
  1
XRECORD
  2
AcDbXrecord
  3
AutoCAD 2000
 90
    32768
280
     0
281
     0
  0
CLASS
  1
LONG_TRANSACTION
  2
AcDbLongTransaction
  3
AutoCAD 2000
 90
    32768
280
     0
281
     0
  0
CLASS
  1
LWPOLYLINE
  2
AcDbPolyline
  3
AutoCAD 2000
 90
    32768
280
     0
281
     1
  0
CLASS
  1
HATCH
  2
AcDbHatch
  3
AutoCAD 2000
 90
    32768
280
     0
281
     1
  0
CLASS
  1
XRECORD
  2
AcDbXrecord
  3
AutoCAD 2000
 90
    32768
280
     0
281
     0
  0
CLASS
  1
LONG_TRANSACTION
  2
AcDbLongTransaction
  3
AutoCAD 2000
 90
    32768
280
     0
281
     0
  0
CLASS
  1
LWPOLYLINE
  2
AcDbPolyline
  3
AutoCAD 2000
 90
    32768
280
     0
281
     1
  0
CLASS
  1
HATCH
  2
AcDbHatch
  3
AutoCAD 2000
 90
    32768
280
     0
281
     1
  0
CLASS
  1
XRECORD
  2
AcDbXrecord
  3
AutoCAD 2000
 90
    32768
280
     0
281
     0
  0
CLASS
  1
DICTIONARYVAR
  2
AcDbDictionaryVar
  3
AutoCAD 2000
 90
        0
280
     0
281
     0
  0
CLASS
  1
LONG_TRANSACTION
  2
AcDbLongTransaction
  3
AutoCAD 2000
 90
    32768
280
     0
281
     0
  0
CLASS
  1
LWPOLYLINE
  2
AcDbPolyline
  3
AutoCAD 2000
 90
    32768
280
     0
281
     1
  0
CLASS
  1
HATCH
  2
AcDbHatch
  3
AutoCAD 2000
 90
    32768
280
     0
281
     1
  0
CLASS
  1
XRECORD
  2
AcDbXrecord
  3
AutoCAD 2000
 90
    32768
280
     0
281
     0
  0
CLASS
  1
LONG_TRANSACTION
  2
AcDbLongTransaction
  3
AutoCAD 2000
 90
    32768
280
     0
281
     0
  0
CLASS
  1
LWPOLYLINE
  2
AcDbPolyline
  3
AutoCAD 2000
 90
    32768
280
     0
281
     1
  0
CLASS
  1
HATCH
  2
AcDbHatch
  3
AutoCAD 2000
 90
    32768
280
     0
281
     1
  0
CLASS
  1
XRECORD
  2
AcDbXrecord
  3
AutoCAD 2000
 90
    32768
280
     0
281
     0
  0
CLASS
  1
LONG_TRANSACTION
  2
AcDbLongTransaction
  3
AutoCAD 2000
 90
    32768
280
     0
281
     0
  0
CLASS
  1
LWPOLYLINE
  2
AcDbPolyline
  3
AutoCAD 2000
 90
    32768
280
     0
281
     1
  0
CLASS
  1
HATCH
  2
AcDbHatch
  3
AutoCAD 2000
 90
    32768
280
     0
281
     1
  0
CLASS
  1
XRECORD
  2
AcDbXrecord
  3
AutoCAD 2000
 90
    32768
280
     0
281
     0
  0
ENDSEC
  0
SECTION
  2
TABLES
  0
TABLE
  2
VPORT
  5
8
330
0
100
AcDbSymbolTable
 70
     2
  0
VPORT
  5
D1DF
330
8
100
AcDbSymbolTableRecord
100
AcDbViewportTableRecord
  2
*Active
 70
     0
 10
0.0
 20
0.0
 11
1.0
 21
1.0
 12
526.9988610143764
 22
293.4024245194878
 13
0.0
 23
0.0
 14
1.0
 24
1.0
 15
20.0
 25
20.0
 16
0.0
 26
0.0
 36
1.0
 17
0.0
 27
0.0
 37
0.0
 40
191.8149916932037
 41
1.614711033274956
 42
50.0
 43
0.0
 44
0.0
 50
0.0
 51
0.0
 71
     0
 72
   100
 73
     1
 74
     1
 75
     0
 76
     1
 77
     0
 78
     0
281
     0
 65
     1
110
0.0
120
0.0
130
0.0
111
1.0
121
0.0
131
0.0
112
0.0
122
1.0
132
0.0
 79
     0
146
0.0
  0
ENDTAB
  0
TABLE
  2
LTYPE
  5
5
330
0
100
AcDbSymbolTable
 70
     4
  0
LTYPE
  5
13
330
5
100
AcDbSymbolTableRecord
100
AcDbLinetypeTableRecord
  2
BYBLOCK
 70
     0
  3

 72
    65
 73
     0
 40
0.0
  0
LTYPE
  5
14
330
5
100
AcDbSymbolTableRecord
100
AcDbLinetypeTableRecord
  2
BYLAYER
 70
     0
  3

 72
    65
 73
     0
 40
0.0
  0
LTYPE
  5
15
330
5
100
AcDbSymbolTableRecord
100
AcDbLinetypeTableRecord
  2
CONTINUOUS
 70
     0
  3
Solid line
 72
    65
 73
     0
 40
0.0
  0
LTYPE
  5
22
330
5
100
AcDbSymbolTableRecord
100
AcDbLinetypeTableRecord
  2
CONTINOUS
 70
     0
  3
Solid line
 72
    65
 73
     0
 40
0.0
  0
LTYPE
  5
24
330
5
100
AcDbSymbolTableRecord
100
AcDbLinetypeTableRecord
  2
DASHDOT
 70
     0
  3
__ . __ . __ . __ . __ . __ . __ . __ . __ . __
 72
    65
 73
     4
 40
1.0
 49
0.5
 74
     0
 49
-0.25
 74
     0
 49
0.0
 74
     0
 49
-0.25
 74
     0
  0
LTYPE
  5
4C47
330
5
100
AcDbSymbolTableRecord
100
AcDbLinetypeTableRecord
  2
DIVIDE
 70
     0
  3
Divide ____ . . ____ . . ____ . . ____ . . ____
 72
    65
 73
     6
 40
1.25
 49
0.5
 74
     0
 49
-0.25
 74
     0
 49
0.0
 74
     0
 49
-0.25
 74
     0
 49
0.0
 74
     0
 49
-0.25
 74
     0
  0
ENDTAB
  0
TABLE
  2
LAYER
  5
2
330
0
100
AcDbSymbolTable
 70
    16
  0
LAYER
  5
10
330
2
100
AcDbSymbolTableRecord
100
AcDbLayerTableRecord
  2
0
 70
     0
 62
     7
  6
CONTINOUS
370
    -3
390
F
  0
LAYER
  5
2F
330
2
100
AcDbSymbolTableRecord
100
AcDbLayerTableRecord
  2
10
 70
     0
 62
     4
  6
CONTINOUS
370
    -3
390
F
  0
LAYER
  5
31
330
2
100
AcDbSymbolTableRecord
100
AcDbLayerTableRecord
  2
12
 70
     0
 62
     3
  6
CONTINOUS
370
    -3
390
F
  0
LAYER
  5
35
330
2
100
AcDbSymbolTableRecord
100
AcDbLayerTableRecord
  2
16
 70
     0
 62
     6
  6
DASHDOT
370
    -3
390
F
  0
LAYER
  5
38
330
2
100
AcDbSymbolTableRecord
100
AcDbLayerTableRecord
  2
19
 70
     0
 62
     7
  6
CONTINOUS
370
    -3
390
F
  0
LAYER
  5
3C
330
2
100
AcDbSymbolTableRecord
100
AcDbLayerTableRecord
  2
11
 70
     0
 62
     1
  6
CONTINOUS
370
    -3
390
F
  0
LAYER
  5
3D
330
2
100
AcDbSymbolTableRecord
100
AcDbLayerTableRecord
  2
24
 70
     0
 62
     2
  6
CONTINOUS
370
    -3
390
F
  0
LAYER
  5
3A2
330
2
100
AcDbSymbolTableRecord
100
AcDbLayerTableRecord
  2
30
 70
     0
 62
     9
  6
CONTINUOUS
370
    -3
390
F
  0
LAYER
  5
3A4
330
2
100
AcDbSymbolTableRecord
100
AcDbLayerTableRecord
  2
DEFPOINTS
 70
     0
 62
     7
  6
CONTINUOUS
290
     0
370
    -3
390
F
  0
LAYER
  5
3BBA
330
2
100
AcDbSymbolTableRecord
100
AcDbLayerTableRecord
  2
18
 70
     0
 62
     5
  6
DIVIDE
370
    -3
390
F
  0
LAYER
  5
5D4D
330
2
100
AcDbSymbolTableRecord
100
AcDbLayerTableRecord
  2
17
 70
     0
 62
     2
  6
DASHDOT
370
    -3
390
F
  0
LAYER
  5
7355
330
2
100
AcDbSymbolTableRecord
100
AcDbLayerTableRecord
  2
1
 70
     0
 62
     7
  6
CONTINUOUS
370
    -3
390
F
  0
LAYER
  5
A063
330
2
100
AcDbSymbolTableRecord
100
AcDbLayerTableRecord
  2
160
 70
     0
 62
     7
  6
CONTINUOUS
370
    -3
390
F
  0
LAYER
  5
A064
330
2
100
AcDbSymbolTableRecord
100
AcDbLayerTableRecord
  2
225
 70
     0
 62
     7
  6
CONTINUOUS
370
    -3
390
F
  0
LAYER
  5
A065
330
2
100
AcDbSymbolTableRecord
100
AcDbLayerTableRecord
  2
150
 70
     0
 62
     7
  6
CONTINUOUS
370
    -3
390
F
  0
LAYER
  5
AFBB
330
2
100
AcDbSymbolTableRecord
100
AcDbLayerTableRecord
  2
21
 70
     0
 62
     7
  6
CONTINUOUS
370
    -3
390
F
  0
ENDTAB
  0
TABLE
  2
STYLE
  5
3
330
0
100
AcDbSymbolTable
 70
     2
  0
STYLE
  5
11
330
3
100
AcDbSymbolTableRecord
100
AcDbTextStyleTableRecord
  2
STANDARD
 70
     0
 40
0.0
 41
1.0
 50
0.0
 71
     0
 42
2.0
  3
txt.shx
  4
bigfont.shx
  0
STYLE
  5
42
330
3
100
AcDbSymbolTableRecord
100
AcDbTextStyleTableRecord
  2
STANDARD1
 70
     0
 40
0.0
 41
1.0
 50
0.0
 71
     0
 42
5.0
  3
MONOTXT
  4
BIGFONT
  0
ENDTAB
  0
TABLE
  2
VIEW
  5
6
330
0
100
AcDbSymbolTable
 70
     3
  0
VIEW
  5
230C
330
6
100
AcDbSymbolTableRecord
100
AcDbViewTableRecord
  2
OLE1
 70
     0
 40
148.9124878027714
 10
429.4976280407222
 20
2.560626997828478
 41
103.1458057716444
 11
0.0
 21
0.0
 31
1.0
 12
0.0
 22
0.0
 32
0.0
 42
50.0
 43
0.0
 44
0.0
 50
0.0
 71
     0
281
     0
 72
     0
  0
VIEW
  5
230E
330
6
100
AcDbSymbolTableRecord
100
AcDbViewTableRecord
  2
OLE2
 70
     0
 40
170.7786920545775
 10
322.664969958371
 20
-5.978304054290276
 41
102.4672152327465
 11
0.0
 21
0.0
 31
1.0
 12
0.0
 22
0.0
 32
0.0
 42
50.0
 43
0.0
 44
0.0
 50
0.0
 71
     0
281
     0
 72
     0
  0
VIEW
  5
23AA
330
6
100
AcDbSymbolTableRecord
100
AcDbViewTableRecord
  2
OLE3
 70
     0
 40
591.7897393182231
 10
84.79698158148218
 20
-46.09336010803995
 41
388.7920961799953
 11
0.0
 21
0.0
 31
1.0
 12
0.0
 22
0.0
 32
0.0
 42
50.0
 43
0.0
 44
0.0
 50
0.0
 71
     0
281
     0
 72
     0
  0
ENDTAB
  0
TABLE
  2
UCS
  5
7
330
0
100
AcDbSymbolTable
 70
     0
  0
ENDTAB
  0
TABLE
  2
APPID
  5
9
330
0
100
AcDbSymbolTable
 70
     2
  0
APPID
  5
12
330
9
100
AcDbSymbolTableRecord
100
AcDbRegAppTableRecord
  2
ACAD
 70
     0
  0
APPID
  5
ECD
330
9
100
AcDbSymbolTableRecord
100
AcDbRegAppTableRecord
  2
CONTENTBLOCKICON
 70
     0
  0
ENDTAB
  0
TABLE
  2
DIMSTYLE
  5
A
330
0
100
AcDbSymbolTable
 70
     2
100
AcDbDimStyleTable
 71
     2
340
AFBC
340
175
  0
DIMSTYLE
105
175
330
A
100
AcDbSymbolTableRecord
100
AcDbDimStyleTableRecord
  2
STANDARD
 70
     0
 41
2.0
 42
1.0
 43
0.5
 44
0.5
 73
     0
 77
     3
 78
    12
140
5.0
147
1.0
271
     1
272
     1
340
11
341
3B2
342
3B2
  0
DIMSTYLE
105
AFBC
102
{ACAD_REACTORS
330
A62C
330
A62B
330
A62A
330
A627
330
A625
330
A624
330
A75D
330
A75B
330
B484
330
B476
330
A75C
330
B58B
330
B58C
330
B593
330
B594
330
B595
330
A798
330
A758
330
A7D2
330
B90E
330
B912
330
B921
330
B924
330
B928
330
B935
330
BA57
330
BB20
330
BB38
330
BB4D
330
A732
330
A733
330
A738
330
A73E
330
A731
330
A73F
102
}
330
A
100
AcDbSymbolTableRecord
100
AcDbDimStyleTableRecord
  2
STANDARD1
 70
     0
 41
2.0
 42
3.0
 43
0.5
 44
0.5
 73
     0
 77
     3
 78
    12
140
6.0
147
3.0
271
     1
272
     1
289
     2
340
11
341
3B2
342
3B2
  0
ENDTAB
  0
TABLE
  2
BLOCK_RECORD
  5
1
330
0
100
AcDbSymbolTable
 70
    43
  0
BLOCK_RECORD
  5
1E
102
{ACAD_XDICTIONARY
360
178
102
}
330
1
100
AcDbSymbolTableRecord
100
AcDbBlockTableRecord
  2
*MODEL_SPACE
340
8B11
  0
BLOCK_RECORD
  5
1A
102
{ACAD_XDICTIONARY
360
17A
102
}
330
1
100
AcDbSymbolTableRecord
100
AcDbBlockTableRecord
  2
*PAPER_SPACE
340
8B12
  0
BLOCK_RECORD
  5
3B2
330
1
100
AcDbSymbolTableRecord
100
AcDbBlockTableRecord
  2
_OPEN
340
0
102
{BLKREFS
331
B174
331
B175
331
B186
331
B187
331
B9D7
331
B9D8
331
B9E0
331
B9E1
331
B9E9
331
B9EA
331
B9F2
331
B9F3
331
B9FA
331
B9FB
331
C7F0
331
C7F1
331
C937
331
C938
331
C940
331
C941
331
C949
331
C94A
331
C96D
331
C96E
331
C991
331
C992
331
C9A4
331
C9A5
331
CBB9
331
CBBA
331
CBC2
331
CBC3
331
CBCB
331
CBCC
331
CBD4
331
CBD5
331
CBDD
331
CBDE
331
CBE6
331
CBE7
331
CBEF
331
CBF0
331
CBF8
331
CBF9
331
CC01
331
CC02
331
CC0A
331
CC0B
331
CCF4
331
CCF5
331
CCFD
331
CCFE
331
CD06
331
CD07
331
CD0F
331
CD10
331
CD18
331
CD19
331
CD22
331
CD23
331
CD2B
331
CD2C
331
CD36
331
CD37
331
CD3F
331
CD40
331
CD48
331
CD49
331
CD51
331
CD52
331
CD5A
331
CD5B
331
CD63
331
CD64
331
CD6C
331
CD6D
331
CD75
331
CD76
331
CDDE
331
CDDF
331
CDE7
331
CDE8
331
CDF0
331
CDF1
331
CDF9
331
CDFA
331
CE02
331
CE03
331
CE0B
331
CE0C
331
CE13
331
CE14
331
CE1C
331
CE1D
331
CE25
331
CE26
331
CE2D
331
CE35
331
CE3E
331
CE3F
331
CE47
331
CE48
331
CE50
331
CE51
331
CE59
331
CE5A
331
CE62
331
CE63
331
CE6A
331
CE6B
331
CE73
331
CE74
331
CE7B
331
CE7C
331
CE8A
331
CE8B
331
CE93
331
CE94
331
CE9C
331
CE9D
331
CEA6
331
CEA7
331
CEAF
331
CEB0
331
CEB8
331
CEB9
331
CEC1
331
CEC2
331
CECA
331
CECB
331
CED3
331
CED4
331
CEDC
331
CEDD
331
CEE5
331
CEE6
331
CEED
331
CEEE
331
CEF6
331
CEF7
331
CEFE
331
CF07
331
CF08
331
CF0F
331
CF18
331
CF19
331
CF21
331
CF22
331
CF2A
331
CF2B
331
CF33
331
CF34
331
CF3C
331
CF3D
331
CF45
331
CF46
331
CF4D
331
CF4E
331
CF56
331
CF57
331
CF5E
331
CF67
331
CF68
331
CF6F
331
CF78
331
CF79
331
CF81
331
CF82
331
CF8A
331
CF8B
331
CF93
331
CF94
331
CF9C
331
CF9D
331
CFA5
331
CFA6
331
CFAE
331
CFAF
331
CFB7
331
CFB8
331
CFC0
331
CFC1
331
CFC9
331
CFCA
331
CFD2
331
CFD3
331
CFDB
331
CFDC
331
CFE5
331
CFE6
331
CFEE
331
CFEF
331
CFF7
331
CFF8
331
D000
331
D001
331
D009
331
D00A
331
D012
331
D013
331
D01B
331
D01C
331
D024
331
D025
331
D02C
331
D035
331
D036
331
D03D
331
D046
331
D047
331
D04F
331
D050
331
D05A
331
D05B
331
D063
331
D064
331
D06C
331
D06D
331
D075
331
D076
331
D0CD
331
D0CE
331
D0D6
331
D0D7
331
D0DF
331
D0E0
331
D0E8
331
D0E9
331
D0F1
331
D0F2
331
D0F9
331
D0FA
331
D105
331
D106
331
D10E
331
D10F
331
D117
331
D118
331
D121
331
D122
331
D12D
331
D12E
331
D136
331
D137
102
}
  0
BLOCK_RECORD
  5
A91A
330
1
100
AcDbSymbolTableRecord
100
AcDbBlockTableRecord
  2
*D1
340
0
  0
BLOCK_RECORD
  5
A932
330
1
100
AcDbSymbolTableRecord
100
AcDbBlockTableRecord
  2
*D2
340
0
  0
BLOCK_RECORD
  5
A93F
330
1
100
AcDbSymbolTableRecord
100
AcDbBlockTableRecord
  2
*D3
340
0
  0
BLOCK_RECORD
  5
A94B
330
1
100
AcDbSymbolTableRecord
100
AcDbBlockTableRecord
  2
*D4
340
0
  0
BLOCK_RECORD
  5
A958
330
1
100
AcDbSymbolTableRecord
100
AcDbBlockTableRecord
  2
*D5
340
0
  0
BLOCK_RECORD
  5
A965
330
1
100
AcDbSymbolTableRecord
100
AcDbBlockTableRecord
  2
*D6
340
0
  0
BLOCK_RECORD
  5
A972
330
1
100
AcDbSymbolTableRecord
100
AcDbBlockTableRecord
  2
*D7
340
0
  0
BLOCK_RECORD
  5
A97E
330
1
100
AcDbSymbolTableRecord
100
AcDbBlockTableRecord
  2
*D8
340
0
  0
BLOCK_RECORD
  5
A98A
330
1
100
AcDbSymbolTableRecord
100
AcDbBlockTableRecord
  2
*D9
340
0
  0
BLOCK_RECORD
  5
A995
330
1
100
AcDbSymbolTableRecord
100
AcDbBlockTableRecord
  2
*D10
340
0
  0
BLOCK_RECORD
  5
AA8A
330
1
100
AcDbSymbolTableRecord
100
AcDbBlockTableRecord
  2
*D11
340
0
  0
BLOCK_RECORD
  5
AA97
330
1
100
AcDbSymbolTableRecord
100
AcDbBlockTableRecord
  2
*D12
340
0
  0
BLOCK_RECORD
  5
AAA4
330
1
100
AcDbSymbolTableRecord
100
AcDbBlockTableRecord
  2
*D13
340
0
  0
BLOCK_RECORD
  5
AAB0
330
1
100
AcDbSymbolTableRecord
100
AcDbBlockTableRecord
  2
*D14
340
0
  0
BLOCK_RECORD
  5
AABB
330
1
100
AcDbSymbolTableRecord
100
AcDbBlockTableRecord
  2
*D15
340
0
  0
BLOCK_RECORD
  5
AAC8
330
1
100
AcDbSymbolTableRecord
100
AcDbBlockTableRecord
  2
*D16
340
0
  0
BLOCK_RECORD
  5
AAD5
330
1
100
AcDbSymbolTableRecord
100
AcDbBlockTableRecord
  2
*D17
340
0
  0
BLOCK_RECORD
  5
AAE2
330
1
100
AcDbSymbolTableRecord
100
AcDbBlockTableRecord
  2
*D18
340
0
  0
BLOCK_RECORD
  5
AAEE
330
1
100
AcDbSymbolTableRecord
100
AcDbBlockTableRecord
  2
*D19
340
0
  0
BLOCK_RECORD
  5
AAFA
330
1
100
AcDbSymbolTableRecord
100
AcDbBlockTableRecord
  2
*D20
340
0
  0
BLOCK_RECORD
  5
AB06
330
1
100
AcDbSymbolTableRecord
100
AcDbBlockTableRecord
  2
*D21
340
0
  0
BLOCK_RECORD
  5
AB4C
330
1
100
AcDbSymbolTableRecord
100
AcDbBlockTableRecord
  2
*D22
340
0
  0
BLOCK_RECORD
  5
B477
330
1
100
AcDbSymbolTableRecord
100
AcDbBlockTableRecord
  2
*D23
340
0
  0
BLOCK_RECORD
  5
B485
330
1
100
AcDbSymbolTableRecord
100
AcDbBlockTableRecord
  2
*D24
340
0
  0
BLOCK_RECORD
  5
B596
330
1
100
AcDbSymbolTableRecord
100
AcDbBlockTableRecord
  2
*D25
340
0
  0
BLOCK_RECORD
  5
B5A3
330
1
100
AcDbSymbolTableRecord
100
AcDbBlockTableRecord
  2
*D26
340
0
  0
BLOCK_RECORD
  5
B5AF
330
1
100
AcDbSymbolTableRecord
100
AcDbBlockTableRecord
  2
*D27
340
0
  0
BLOCK_RECORD
  5
B5BB
330
1
100
AcDbSymbolTableRecord
100
AcDbBlockTableRecord
  2
*D28
340
0
  0
BLOCK_RECORD
  5
B5C7
330
1
100
AcDbSymbolTableRecord
100
AcDbBlockTableRecord
  2
*D29
340
0
  0
BLOCK_RECORD
  5
B5D3
330
1
100
AcDbSymbolTableRecord
100
AcDbBlockTableRecord
  2
*D30
340
0
  0
BLOCK_RECORD
  5
B976
330
1
100
AcDbSymbolTableRecord
100
AcDbBlockTableRecord
  2
*D31
340
0
  0
BLOCK_RECORD
  5
B982
330
1
100
AcDbSymbolTableRecord
100
AcDbBlockTableRecord
  2
*D32
340
0
  0
BLOCK_RECORD
  5
B98E
330
1
100
AcDbSymbolTableRecord
100
AcDbBlockTableRecord
  2
*D33
340
0
  0
BLOCK_RECORD
  5
B99A
330
1
100
AcDbSymbolTableRecord
100
AcDbBlockTableRecord
  2
*D34
340
0
  0
BLOCK_RECORD
  5
B9B0
330
1
100
AcDbSymbolTableRecord
100
AcDbBlockTableRecord
  2
*D35
340
0
  0
BLOCK_RECORD
  5
B9C8
330
1
100
AcDbSymbolTableRecord
100
AcDbBlockTableRecord
  2
*D36
340
0
  0
BLOCK_RECORD
  5
BA58
330
1
100
AcDbSymbolTableRecord
100
AcDbBlockTableRecord
  2
*D37
340
0
  0
BLOCK_RECORD
  5
BB4F
330
1
100
AcDbSymbolTableRecord
100
AcDbBlockTableRecord
  2
*D38
340
0
  0
BLOCK_RECORD
  5
BB8A
330
1
100
AcDbSymbolTableRecord
100
AcDbBlockTableRecord
  2
*D39
340
0
  0
BLOCK_RECORD
  5
BBA2
330
1
100
AcDbSymbolTableRecord
100
AcDbBlockTableRecord
  2
*D40
340
0
  0
BLOCK_RECORD
  5
BBB9
330
1
100
AcDbSymbolTableRecord
100
AcDbBlockTableRecord
  2
*D41
340
0
  0
BLOCK_RECORD
  5
BBC4
330
1
100
AcDbSymbolTableRecord
100
AcDbBlockTableRecord
  2
*D42
340
0
  0
ENDTAB
  0
ENDSEC
  0
SECTION
  2
BLOCKS
  0
BLOCK
  5
1F
330
1E
100
AcDbEntity
  8
0
100
AcDbBlockBegin
  2
*MODEL_SPACE
 70
     0
 10
0.0
 20
0.0
 30
0.0
  3
*MODEL_SPACE
  1

  0
ENDBLK
  5
20
330
1E
100
AcDbEntity
  8
0
100
AcDbBlockEnd
  0
BLOCK
  5
1B
330
1A
100
AcDbEntity
 67
     1
  8
0
100
AcDbBlockBegin
  2
*PAPER_SPACE
 70
     0
 10
0.0
 20
0.0
 30
0.0
  3
*PAPER_SPACE
  1

  0
ENDBLK
  5
1C
330
1A
100
AcDbEntity
 67
     1
  8
0
100
AcDbBlockEnd
  0
BLOCK
  5
3B6
330
3B2
100
AcDbEntity
  8
0
100
AcDbBlockBegin
  2
_OPEN
 70
     0
 10
0.0
 20
0.0
 30
0.0
  3
_OPEN
  1

  0
LINE
  5
3B3
330
3B2
100
AcDbEntity
  8
30
  6
Continuous
 62
     0
100
AcDbLine
 10
-1.0
 20
0.1666666666666666
 30
0.0
 11
0.0
 21
0.0
 31
0.0
  0
LINE
  5
3B4
330
3B2
100
AcDbEntity
  8
30
  6
Continuous
 62
     0
100
AcDbLine
 10
-1.0
 20
-0.1666666666666666
 30
0.0
 11
0.0
 21
0.0
 31
0.0
  0
LINE
  5
3B5
330
3B2
100
AcDbEntity
  8
30
  6
Continuous
 62
     0
100
AcDbLine
 10
0.0
 20
0.0
 30
0.0
 11
-1.0
 21
0.0
 31
0.0
  0
ENDBLK
  5
3B7
330
3B2
100
AcDbEntity
  8
0
100
AcDbBlockEnd
  0
BLOCK
  5
A924
330
A91A
100
AcDbEntity
  8
0
100
AcDbBlockBegin
  2
*D1
 70
     1
 10
0.0
 20
0.0
 30
0.0
  3
*D1
  1

  0
LINE
  5
CC07
330
A91A
100
AcDbEntity
  8
30
  6
Continuous
 62
     0
370
    -2
100
AcDbLine
 10
-95.0
 20
54.50000000000006
 30
0.0
 11
-95.0
 21
84.90412500000008
 31
0.0
  0
LINE
  5
CC08
330
A91A
100
AcDbEntity
  8
30
  6
Continuous
 62
     0
370
    -2
100
AcDbLine
 10
95.0
 20
54.50000000000006
 30
0.0
 11
95.0
 21
84.90412500000008
 31
0.0
  0
LINE
  5
CC09
330
A91A
100
AcDbEntity
  8
30
  6
Continuous
 62
     0
370
    -2
100
AcDbLine
 10
-93.0
 20
84.40412500000006
 30
0.0
 11
93.0
 21
84.40412500000006
 31
0.0
  0
INSERT
  5
CC0A
330
A91A
100
AcDbEntity
  8
30
  6
Continuous
 62
     0
370
    -2
100
AcDbBlockReference
  2
_OPEN
 10
-95.0
 20
84.40412500000006
 30
0.0
 41
2.0
 42
2.0
 43
2.0
 50
180.0
  0
INSERT
  5
CC0B
330
A91A
100
AcDbEntity
  8
30
  6
Continuous
 62
     0
370
    -2
100
AcDbBlockReference
  2
_OPEN
 10
95.0
 20
84.40412500000006
 30
0.0
 41
2.0
 42
2.0
 43
2.0
  0
MTEXT
  5
CC0C
330
A91A
100
AcDbEntity
  8
30
  6
Continuous
 62
     0
100
AcDbMText
 10
0.0000000000000004
 20
90.40412500000007
 30
0.0
 40
6.0
 41
0.0
 71
     5
 72
     1
  1
\A1; 190 
 73
     1
 44
1.0
  0
POINT
  5
CC0D
330
A91A
100
AcDbEntity
  8
DEFPOINTS
  6
Continuous
 62
     0
100
AcDbPoint
 10
-95.0
 20
51.50000000000005
 30
0.0
  0
POINT
  5
CC0E
330
A91A
100
AcDbEntity
  8
DEFPOINTS
  6
Continuous
 62
     0
100
AcDbPoint
 10
95.0
 20
51.50000000000005
 30
0.0
  0
POINT
  5
CC0F
330
A91A
100
AcDbEntity
  8
DEFPOINTS
  6
Continuous
 62
     0
100
AcDbPoint
 10
95.0
 20
84.40412500000006
 30
0.0
  0
ENDBLK
  5
A925
330
A91A
100
AcDbEntity
  8
0
100
AcDbBlockEnd
  0
BLOCK
  5
A93D
330
A932
100
AcDbEntity
  8
0
100
AcDbBlockBegin
  2
*D2
 70
     1
 10
0.0
 20
0.0
 30
0.0
  3
*D2
  1

  0
LINE
  5
CFB4
330
A932
100
AcDbEntity
  8
30
  6
Continuous
 62
     0
370
    -2
100
AcDbLine
 10
-113.0
 20
-169.9999999999999
 30
0.0
 11
-159.4539
 21
-169.9999999999999
 31
0.0
  0
LINE
  5
CFB5
330
A932
100
AcDbEntity
  8
30
  6
Continuous
 62
     0
370
    -2
100
AcDbLine
 10
-113.0
 20
200.0
 30
0.0
 11
-159.4538999999999
 21
200.0
 31
0.0
  0
LINE
  5
CFB6
330
A932
100
AcDbEntity
  8
30
  6
Continuous
 62
     0
370
    -2
100
AcDbLine
 10
-158.9539
 20
-167.9999999999999
 30
0.0
 11
-158.9538999999998
 21
198.0
 31
0.0
  0
INSERT
  5
CFB7
330
A932
100
AcDbEntity
  8
30
  6
Continuous
 62
     0
370
    -2
100
AcDbBlockReference
  2
_OPEN
 10
-158.9539
 20
-169.9999999999999
 30
0.0
 41
2.0
 42
2.0
 43
2.0
 50
270.0
  0
INSERT
  5
CFB8
330
A932
100
AcDbEntity
  8
30
  6
Continuous
 62
     0
370
    -2
100
AcDbBlockReference
  2
_OPEN
 10
-158.9538999999998
 20
200.0
 30
0.0
 41
2.0
 42
2.0
 43
2.0
 50
90.0
  0
MTEXT
  5
CFB9
330
A932
100
AcDbEntity
  8
30
  6
Continuous
 62
     0
100
AcDbMText
 10
-164.9539
 20
15.0
 30
0.0
 40
6.0
 41
0.0
 71
     5
 72
     1
  1
\A1; 370 
 11
0.0000000000000001
 21
1.0
 31
0.0
 73
     1
 44
1.0
  0
POINT
  5
CFBA
330
A932
100
AcDbEntity
  8
DEFPOINTS
  6
Continuous
 62
     0
100
AcDbPoint
 10
-110.0
 20
-169.9999999999999
 30
0.0
  0
POINT
  5
CFBB
330
A932
100
AcDbEntity
  8
DEFPOINTS
  6
Continuous
 62
     0
100
AcDbPoint
 10
-110.0
 20
200.0
 30
0.0
  0
POINT
  5
CFBC
330
A932
100
AcDbEntity
  8
DEFPOINTS
  6
Continuous
 62
     0
100
AcDbPoint
 10
-158.9538999999998
 20
200.0
 30
0.0
  0
ENDBLK
  5
A93E
330
A932
100
AcDbEntity
  8
0
100
AcDbBlockEnd
  0
BLOCK
  5
A949
330
A93F
100
AcDbEntity
  8
0
100
AcDbBlockBegin
  2
*D3
 70
     1
 10
0.0
 20
0.0
 30
0.0
  3
*D3
  1

  0
LINE
  5
CFBD
330
A93F
100
AcDbEntity
  8
30
  6
Continuous
 62
     0
370
    -2
100
AcDbLine
 10
-162.0
 20
0.000000000000056
 30
0.0
 11
-138.9539
 21
0.0000000000000495
 31
0.0
  0
LINE
  5
CFBE
330
A93F
100
AcDbEntity
  8
30
  6
Continuous
 62
     0
370
    -2
100
AcDbLine
 10
-108.0
 20
199.9999999999999
 30
0.0
 11
-139.9538999999996
 21
199.9999999999999
 31
0.0
  0
LINE
  5
CFBF
330
A93F
100
AcDbEntity
  8
30
  6
Continuous
 62
     0
370
    -2
100
AcDbLine
 10
-139.4538999999996
 20
2.000000000000049
 30
0.0
 11
-139.4538999999996
 21
197.9999999999999
 31
0.0
  0
INSERT
  5
CFC0
330
A93F
100
AcDbEntity
  8
30
  6
Continuous
 62
     0
370
    -2
100
AcDbBlockReference
  2
_OPEN
 10
-139.4538999999996
 20
0.0000000000000496
 30
0.0
 41
2.0
 42
2.0
 43
2.0
 50
270.0
  0
INSERT
  5
CFC1
330
A93F
100
AcDbEntity
  8
30
  6
Continuous
 62
     0
370
    -2
100
AcDbBlockReference
  2
_OPEN
 10
-139.4538999999996
 20
199.9999999999999
 30
0.0
 41
2.0
 42
2.0
 43
2.0
 50
90.0
  0
MTEXT
  5
CFC2
330
A93F
100
AcDbEntity
  8
30
  6
Continuous
 62
     0
100
AcDbMText
 10
-145.4539
 20
100.0
 30
0.0
 40
6.0
 41
0.0
 71
     5
 72
     1
  1
\A1; 200 
 11
0.0000000000000001
 21
1.0
 31
0.0
 73
     1
 44
1.0
  0
POINT
  5
CFC3
330
A93F
100
AcDbEntity
  8
DEFPOINTS
  6
Continuous
 62
     0
100
AcDbPoint
 10
-165.0
 20
0.0000000000000568
 30
0.0
  0
POINT
  5
CFC4
330
A93F
100
AcDbEntity
  8
DEFPOINTS
  6
Continuous
 62
     0
100
AcDbPoint
 10
-105.0
 20
199.9999999999999
 30
0.0
  0
POINT
  5
CFC5
330
A93F
100
AcDbEntity
  8
DEFPOINTS
  6
Continuous
 62
     0
100
AcDbPoint
 10
-139.4538999999996
 20
199.9999999999999
 30
0.0
  0
ENDBLK
  5
A94A
330
A93F
100
AcDbEntity
  8
0
100
AcDbBlockEnd
  0
BLOCK
  5
A956
330
A94B
100
AcDbEntity
  8
0
100
AcDbBlockBegin
  2
*D4
 70
     1
 10
0.0
 20
0.0
 30
0.0
  3
*D4
  1

  0
LINE
  5
CFAB
330
A94B
100
AcDbEntity
  8
30
  6
Continuous
 62
     0
370
    -2
100
AcDbLine
 10
-113.0
 20
-169.9999999999999
 30
0.0
 11
-139.9539
 21
-169.9999999999999
 31
0.0
  0
LINE
  5
CFAC
330
A94B
100
AcDbEntity
  8
30
  6
Continuous
 62
     0
370
    -2
100
AcDbLine
 10
-139.0
 20
0.000000000000056
 30
0.0
 11
-138.9538999999996
 21
0.000000000000056
 31
0.0
  0
LINE
  5
CFAD
330
A94B
100
AcDbEntity
  8
30
  6
Continuous
 62
     0
370
    -2
100
AcDbLine
 10
-139.4538999999996
 20
-167.9999999999999
 30
0.0
 11
-139.4538999999996
 21
-1.999999999999944
 31
0.0
  0
INSERT
  5
CFAE
330
A94B
100
AcDbEntity
  8
30
  6
Continuous
 62
     0
370
    -2
100
AcDbBlockReference
  2
_OPEN
 10
-139.4538999999996
 20
-169.9999999999999
 30
0.0
 41
2.0
 42
2.0
 43
2.0
 50
270.0
  0
INSERT
  5
CFAF
330
A94B
100
AcDbEntity
  8
30
  6
Continuous
 62
     0
370
    -2
100
AcDbBlockReference
  2
_OPEN
 10
-139.4538999999996
 20
0.0000000000000561
 30
0.0
 41
2.0
 42
2.0
 43
2.0
 50
90.0
  0
MTEXT
  5
CFB0
330
A94B
100
AcDbEntity
  8
30
  6
Continuous
 62
     0
100
AcDbMText
 10
-145.4538999999996
 20
-84.99999999999996
 30
0.0
 40
6.0
 41
0.0
 71
     5
 72
     1
  1
\A1; 170 
 11
0.0000000000000001
 21
1.0
 31
0.0
 73
     1
 44
1.0
  0
POINT
  5
CFB1
330
A94B
100
AcDbEntity
  8
DEFPOINTS
  6
Continuous
 62
     0
100
AcDbPoint
 10
-110.0
 20
-169.9999999999999
 30
0.0
  0
POINT
  5
CFB2
330
A94B
100
AcDbEntity
  8
DEFPOINTS
  6
Continuous
 62
     0
100
AcDbPoint
 10
-142.0
 20
0.0000000000000568
 30
0.0
  0
POINT
  5
CFB3
330
A94B
100
AcDbEntity
  8
DEFPOINTS
  6
Continuous
 62
     0
100
AcDbPoint
 10
-139.4538999999996
 20
0.0000000000000561
 30
0.0
  0
ENDBLK
  5
A957
330
A94B
100
AcDbEntity
  8
0
100
AcDbBlockEnd
  0
BLOCK
  5
A963
330
A958
100
AcDbEntity
  8
0
100
AcDbBlockBegin
  2
*D5
 70
     1
 10
0.0
 20
0.0
 30
0.0
  3
*D5
  1

  0
LINE
  5
CBE3
330
A958
100
AcDbEntity
  8
30
  6
Continuous
 62
     0
370
    -2
100
AcDbLine
 10
178.0
 20
-0.0000000000000008
 30
0.0
 11
197.9538999999999
 21
-0.0000000000000065
 31
0.0
  0
LINE
  5
CBE4
330
A958
100
AcDbEntity
  8
30
  6
Continuous
 62
     0
370
    -2
100
AcDbLine
 10
102.0
 20
47.50000000000006
 30
0.0
 11
197.9538999999999
 21
47.50000000000002
 31
0.0
  0
LINE
  5
CBE5
330
A958
100
AcDbEntity
  8
30
  6
Continuous
 62
     0
370
    -2
100
AcDbLine
 10
197.4538999999999
 20
1.999999999999993
 30
0.0
 11
197.4538999999999
 21
45.50000000000003
 31
0.0
  0
INSERT
  5
CBE6
330
A958
100
AcDbEntity
  8
30
  6
Continuous
 62
     0
370
    -2
100
AcDbBlockReference
  2
_OPEN
 10
197.4538999999999
 20
-0.0000000000000064
 30
0.0
 41
2.0
 42
2.0
 43
2.0
 50
270.0
  0
INSERT
  5
CBE7
330
A958
100
AcDbEntity
  8
30
  6
Continuous
 62
     0
370
    -2
100
AcDbBlockReference
  2
_OPEN
 10
197.4538999999999
 20
47.50000000000002
 30
0.0
 41
2.0
 42
2.0
 43
2.0
 50
90.0
  0
MTEXT
  5
CBE8
330
A958
100
AcDbEntity
  8
30
  6
Continuous
 62
     0
100
AcDbMText
 10
191.4538999999999
 20
23.75000000000003
 30
0.0
 40
6.0
 41
0.0
 71
     5
 72
     1
  1
\A1; 47.5 
 11
0.0000000000000001
 21
1.0
 31
0.0
 73
     1
 44
1.0
  0
POINT
  5
CBE9
330
A958
100
AcDbEntity
  8
DEFPOINTS
  6
Continuous
 62
     0
100
AcDbPoint
 10
175.0
 20
0.0
 30
0.0
  0
POINT
  5
CBEA
330
A958
100
AcDbEntity
  8
DEFPOINTS
  6
Continuous
 62
     0
100
AcDbPoint
 10
99.0
 20
47.50000000000006
 30
0.0
  0
POINT
  5
CBEB
330
A958
100
AcDbEntity
  8
DEFPOINTS
  6
Continuous
 62
     0
100
AcDbPoint
 10
197.4538999999999
 20
47.50000000000002
 30
0.0
  0
ENDBLK
  5
A964
330
A958
100
AcDbEntity
  8
0
100
AcDbBlockEnd
  0
BLOCK
  5
A970
330
A965
100
AcDbEntity
  8
0
100
AcDbBlockBegin
  2
*D6
 70
     1
 10
0.0
 20
0.0
 30
0.0
  3
*D6
  1

  0
LINE
  5
CBDA
330
A965
100
AcDbEntity
  8
30
  6
Continuous
 62
     0
370
    -2
100
AcDbLine
 10
102.0
 20
-47.49999999999993
 30
0.0
 11
227.4538999999999
 21
-47.49999999999998
 31
0.0
  0
LINE
  5
CBDB
330
A965
100
AcDbEntity
  8
30
  6
Continuous
 62
     0
370
    -2
100
AcDbLine
 10
102.0
 20
47.50000000000006
 30
0.0
 11
227.4538999999999
 21
47.50000000000002
 31
0.0
  0
LINE
  5
CBDC
330
A965
100
AcDbEntity
  8
30
  6
Continuous
 62
     0
370
    -2
100
AcDbLine
 10
226.9538999999999
 20
-45.49999999999998
 30
0.0
 11
226.9538999999999
 21
45.50000000000002
 31
0.0
  0
INSERT
  5
CBDD
330
A965
100
AcDbEntity
  8
30
  6
Continuous
 62
     0
370
    -2
100
AcDbBlockReference
  2
_OPEN
 10
226.9538999999999
 20
-47.49999999999998
 30
0.0
 41
2.0
 42
2.0
 43
2.0
 50
270.0
  0
INSERT
  5
CBDE
330
A965
100
AcDbEntity
  8
30
  6
Continuous
 62
     0
370
    -2
100
AcDbBlockReference
  2
_OPEN
 10
226.9538999999999
 20
47.50000000000002
 30
0.0
 41
2.0
 42
2.0
 43
2.0
 50
90.0
  0
MTEXT
  5
CBDF
330
A965
100
AcDbEntity
  8
30
  6
Continuous
 62
     0
100
AcDbMText
 10
220.9538999999999
 20
0.0000000000000579
 30
0.0
 40
6.0
 41
0.0
 71
     5
 72
     1
  1
\A1; 95 
 11
0.0000000000000001
 21
1.0
 31
0.0
 73
     1
 44
1.0
  0
POINT
  5
CBE0
330
A965
100
AcDbEntity
  8
DEFPOINTS
  6
Continuous
 62
     0
100
AcDbPoint
 10
99.0
 20
-47.49999999999993
 30
0.0
  0
POINT
  5
CBE1
330
A965
100
AcDbEntity
  8
DEFPOINTS
  6
Continuous
 62
     0
100
AcDbPoint
 10
99.0
 20
47.50000000000006
 30
0.0
  0
POINT
  5
CBE2
330
A965
100
AcDbEntity
  8
DEFPOINTS
  6
Continuous
 62
     0
100
AcDbPoint
 10
226.9538999999999
 20
47.50000000000002
 30
0.0
  0
ENDBLK
  5
A971
330
A965
100
AcDbEntity
  8
0
100
AcDbBlockEnd
  0
BLOCK
  5
A97C
330
A972
100
AcDbEntity
  8
0
100
AcDbBlockBegin
  2
*D7
 70
     1
 10
0.0
 20
0.0
 30
0.0
  3
*D7
  1

  0
LINE
  5
CBD1
330
A972
100
AcDbEntity
  8
30
  6
Continuous
 62
     0
370
    -2
100
AcDbLine
 10
-105.0
 20
-177.9999999999999
 30
0.0
 11
-105.0
 21
-222.0
 31
0.0
  0
LINE
  5
CBD2
330
A972
100
AcDbEntity
  8
30
  6
Continuous
 62
     0
370
    -2
100
AcDbLine
 10
175.0
 20
-177.9999999999999
 30
0.0
 11
175.0
 21
-222.0
 31
0.0
  0
LINE
  5
CBD3
330
A972
100
AcDbEntity
  8
30
  6
Continuous
 62
     0
370
    -2
100
AcDbLine
 10
-103.0
 20
-221.4999999999999
 30
0.0
 11
173.0
 21
-221.4999999999999
 31
0.0
  0
INSERT
  5
CBD4
330
A972
100
AcDbEntity
  8
30
  6
Continuous
 62
     0
370
    -2
100
AcDbBlockReference
  2
_OPEN
 10
-105.0
 20
-221.4999999999999
 30
0.0
 41
2.0
 42
2.0
 43
2.0
 50
180.0
  0
INSERT
  5
CBD5
330
A972
100
AcDbEntity
  8
30
  6
Continuous
 62
     0
370
    -2
100
AcDbBlockReference
  2
_OPEN
 10
175.0
 20
-221.4999999999999
 30
0.0
 41
2.0
 42
2.0
 43
2.0
  0
MTEXT
  5
CBD6
330
A972
100
AcDbEntity
  8
30
  6
Continuous
 62
     0
100
AcDbMText
 10
35.0
 20
-215.5
 30
0.0
 40
6.0
 41
0.0
 71
     5
 72
     1
  1
\A1; 280 
 73
     1
 44
1.0
  0
POINT
  5
CBD7
330
A972
100
AcDbEntity
  8
DEFPOINTS
  6
Continuous
 62
     0
100
AcDbPoint
 10
-105.0
 20
-174.9999999999999
 30
0.0
  0
POINT
  5
CBD8
330
A972
100
AcDbEntity
  8
DEFPOINTS
  6
Continuous
 62
     0
100
AcDbPoint
 10
175.0
 20
-174.9999999999999
 30
0.0
  0
POINT
  5
CBD9
330
A972
100
AcDbEntity
  8
DEFPOINTS
  6
Continuous
 62
     0
100
AcDbPoint
 10
175.0
 20
-221.4999999999999
 30
0.0
  0
ENDBLK
  5
A97D
330
A972
100
AcDbEntity
  8
0
100
AcDbBlockEnd
  0
BLOCK
  5
A988
330
A97E
100
AcDbEntity
  8
0
100
AcDbBlockBegin
  2
*D8
 70
     1
 10
0.0
 20
0.0
 30
0.0
  3
*D8
  1

  0
LINE
  5
CBC8
330
A97E
100
AcDbEntity
  8
30
  6
Continuous
 62
     0
370
    -2
100
AcDbLine
 10
-105.0
 20
-177.9999999999999
 30
0.0
 11
-105.0
 21
-201.5
 31
0.0
  0
LINE
  5
CBC9
330
A97E
100
AcDbEntity
  8
30
  6
Continuous
 62
     0
370
    -2
100
AcDbLine
 10
-0.0000000000000002
 20
-175.9999999999999
 30
0.0
 11
-0.0000000000000017
 21
-201.5
 31
0.0
  0
LINE
  5
CBCA
330
A97E
100
AcDbEntity
  8
30
  6
Continuous
 62
     0
370
    -2
100
AcDbLine
 10
-103.0
 20
-201.0
 30
0.0
 11
-2.0
 21
-201.0
 31
0.0
  0
INSERT
  5
CBCB
330
A97E
100
AcDbEntity
  8
30
  6
Continuous
 62
     0
370
    -2
100
AcDbBlockReference
  2
_OPEN
 10
-105.0
 20
-201.0
 30
0.0
 41
2.0
 42
2.0
 43
2.0
 50
180.0
  0
INSERT
  5
CBCC
330
A97E
100
AcDbEntity
  8
30
  6
Continuous
 62
     0
370
    -2
100
AcDbBlockReference
  2
_OPEN
 10
-0.0000000000000017
 20
-201.0
 30
0.0
 41
2.0
 42
2.0
 43
2.0
  0
MTEXT
  5
CBCD
330
A97E
100
AcDbEntity
  8
30
  6
Continuous
 62
     0
100
AcDbMText
 10
-52.5
 20
-195.0
 30
0.0
 40
6.0
 41
0.0
 71
     5
 72
     1
  1
\A1; 105 
 73
     1
 44
1.0
  0
POINT
  5
CBCE
330
A97E
100
AcDbEntity
  8
DEFPOINTS
  6
Continuous
 62
     0
100
AcDbPoint
 10
-105.0
 20
-174.9999999999999
 30
0.0
  0
POINT
  5
CBCF
330
A97E
100
AcDbEntity
  8
DEFPOINTS
  6
Continuous
 62
     0
100
AcDbPoint
 10
0.0
 20
-172.9999999999999
 30
0.0
  0
POINT
  5
CBD0
330
A97E
100
AcDbEntity
  8
DEFPOINTS
  6
Continuous
 62
     0
100
AcDbPoint
 10
-0.0000000000000017
 20
-201.0
 30
0.0
  0
ENDBLK
  5
A989
330
A97E
100
AcDbEntity
  8
0
100
AcDbBlockEnd
  0
BLOCK
  5
A993
330
A98A
100
AcDbEntity
  8
0
100
AcDbBlockBegin
  2
*D9
 70
     1
 10
0.0
 20
0.0
 30
0.0
  3
*D9
  1

  0
LINE
  5
CBBF
330
A98A
100
AcDbEntity
  8
30
  6
Continuous
 62
     0
370
    -2
100
AcDbLine
 10
-0.0000000000000002
 20
-143.0
 30
0.0
 11
-0.0000000000000038
 21
-201.5
 31
0.0
  0
LINE
  5
CBC0
330
A98A
100
AcDbEntity
  8
30
  6
Continuous
 62
     0
370
    -2
100
AcDbLine
 10
175.0
 20
-172.9999999999999
 30
0.0
 11
175.0
 21
-201.5
 31
0.0
  0
LINE
  5
CBC1
330
A98A
100
AcDbEntity
  8
30
  6
Continuous
 62
     0
370
    -2
100
AcDbLine
 10
1.999999999999995
 20
-201.0
 30
0.0
 11
173.0
 21
-201.0
 31
0.0
  0
INSERT
  5
CBC2
330
A98A
100
AcDbEntity
  8
30
  6
Continuous
 62
     0
370
    -2
100
AcDbBlockReference
  2
_OPEN
 10
-0.0000000000000037
 20
-201.0
 30
0.0
 41
2.0
 42
2.0
 43
2.0
 50
180.0
  0
INSERT
  5
CBC3
330
A98A
100
AcDbEntity
  8
30
  6
Continuous
 62
     0
370
    -2
100
AcDbBlockReference
  2
_OPEN
 10
175.0
 20
-201.0
 30
0.0
 41
2.0
 42
2.0
 43
2.0
  0
MTEXT
  5
CBC4
330
A98A
100
AcDbEntity
  8
30
  6
Continuous
 62
     0
100
AcDbMText
 10
87.5
 20
-195.0
 30
0.0
 40
6.0
 41
0.0
 71
     5
 72
     1
  1
\A1; 175 
 73
     1
 44
1.0
  0
POINT
  5
CBC5
330
A98A
100
AcDbEntity
  8
DEFPOINTS
  6
Continuous
 62
     0
100
AcDbPoint
 10
0.0
 20
-140.0
 30
0.0
  0
POINT
  5
CBC6
330
A98A
100
AcDbEntity
  8
DEFPOINTS
  6
Continuous
 62
     0
100
AcDbPoint
 10
175.0
 20
-169.9999999999999
 30
0.0
  0
POINT
  5
CBC7
330
A98A
100
AcDbEntity
  8
DEFPOINTS
  6
Continuous
 62
     0
100
AcDbPoint
 10
175.0
 20
-201.0
 30
0.0
  0
ENDBLK
  5
A994
330
A98A
100
AcDbEntity
  8
0
100
AcDbBlockEnd
  0
BLOCK
  5
A99F
330
A995
100
AcDbEntity
  8
0
100
AcDbBlockBegin
  2
*D10
 70
     1
 10
0.0
 20
0.0
 30
0.0
  3
*D10
  1

  0
LINE
  5
CBB6
330
A995
100
AcDbEntity
  8
30
  6
Continuous
 62
     0
370
    -2
100
AcDbLine
 10
-39.0
 20
-55.49999999999993
 30
0.0
 11
-39.0
 21
-103.5958749999999
 31
0.0
  0
LINE
  5
CBB7
330
A995
100
AcDbEntity
  8
30
  6
Continuous
 62
     0
370
    -2
100
AcDbLine
 10
39.0
 20
-55.49999999999993
 30
0.0
 11
39.0
 21
-103.5958749999999
 31
0.0
  0
LINE
  5
CBB8
330
A995
100
AcDbEntity
  8
30
  6
Continuous
 62
     0
370
    -2
100
AcDbLine
 10
-37.0
 20
-103.0958749999999
 30
0.0
 11
37.0
 21
-103.0958749999999
 31
0.0
  0
INSERT
  5
CBB9
330
A995
100
AcDbEntity
  8
30
  6
Continuous
 62
     0
370
    -2
100
AcDbBlockReference
  2
_OPEN
 10
-39.0
 20
-103.0958749999999
 30
0.0
 41
2.0
 42
2.0
 43
2.0
 50
180.0
  0
INSERT
  5
CBBA
330
A995
100
AcDbEntity
  8
30
  6
Continuous
 62
     0
370
    -2
100
AcDbBlockReference
  2
_OPEN
 10
39.0
 20
-103.0958749999999
 30
0.0
 41
2.0
 42
2.0
 43
2.0
  0
MTEXT
  5
CBBB
330
A995
100
AcDbEntity
  8
30
  6
Continuous
 62
     0
100
AcDbMText
 10
0.0000000000000004
 20
-97.09587499999992
 30
0.0
 40
6.0
 41
0.0
 71
     5
 72
     1
  1
\A1; 78 
 73
     1
 44
1.0
  0
POINT
  5
CBBC
330
A995
100
AcDbEntity
  8
DEFPOINTS
  6
Continuous
 62
     0
100
AcDbPoint
 10
-39.0
 20
-52.49999999999993
 30
0.0
  0
POINT
  5
CBBD
330
A995
100
AcDbEntity
  8
DEFPOINTS
  6
Continuous
 62
     0
100
AcDbPoint
 10
39.0
 20
-52.49999999999993
 30
0.0
  0
POINT
  5
CBBE
330
A995
100
AcDbEntity
  8
DEFPOINTS
  6
Continuous
 62
     0
100
AcDbPoint
 10
39.0
 20
-103.0958749999999
 30
0.0
  0
ENDBLK
  5
A9A0
330
A995
100
AcDbEntity
  8
0
100
AcDbBlockEnd
  0
BLOCK
  5
AA95
330
AA8A
100
AcDbEntity
  8
0
100
AcDbBlockBegin
  2
*D11
 70
     1
 10
0.0
 20
0.0
 30
0.0
  3
*D11
  1

  0
LINE
  5
CF1E
330
AA8A
100
AcDbEntity
  8
30
  6
Continuous
 62
     0
370
    -2
100
AcDbLine
 10
53.0
 20
-565.0000000000002
 30
0.0
 11
247.1538999999998
 21
-565.0000000000002
 31
0.0
  0
LINE
  5
CF1F
330
AA8A
100
AcDbEntity
  8
30
  6
Continuous
 62
     0
370
    -2
100
AcDbLine
 10
197.9999999999995
 20
-501.0
 30
0.0
 11
247.1538999999998
 21
-501.0
 31
0.0
  0
LINE
  5
CF20
330
AA8A
100
AcDbEntity
  8
30
  6
Continuous
 62
     0
370
    -2
100
AcDbLine
 10
246.6538999999995
 20
-563.0000000000002
 30
0.0
 11
246.6538999999995
 21
-503.0
 31
0.0
  0
INSERT
  5
CF21
330
AA8A
100
AcDbEntity
  8
30
  6
Continuous
 62
     0
370
    -2
100
AcDbBlockReference
  2
_OPEN
 10
246.6538999999995
 20
-565.0000000000002
 30
0.0
 41
2.0
 42
2.0
 43
2.0
 50
270.0
  0
INSERT
  5
CF22
330
AA8A
100
AcDbEntity
  8
30
  6
Continuous
 62
     0
370
    -2
100
AcDbBlockReference
  2
_OPEN
 10
246.6538999999995
 20
-501.0
 30
0.0
 41
2.0
 42
2.0
 43
2.0
 50
90.0
  0
MTEXT
  5
CF23
330
AA8A
100
AcDbEntity
  8
30
  6
Continuous
 62
     0
100
AcDbMText
 10
240.6538999999998
 20
-533.0
 30
0.0
 40
6.0
 41
0.0
 71
     5
 72
     1
  1
\A1; 64 
 11
0.0000000000000001
 21
1.0
 31
0.0
 73
     1
 44
1.0
  0
POINT
  5
CF24
330
AA8A
100
AcDbEntity
  8
DEFPOINTS
  6
Continuous
 62
     0
100
AcDbPoint
 10
50.0
 20
-565.0000000000002
 30
0.0
  0
POINT
  5
CF25
330
AA8A
100
AcDbEntity
  8
DEFPOINTS
  6
Continuous
 62
     0
100
AcDbPoint
 10
194.9999999999995
 20
-501.0
 30
0.0
  0
POINT
  5
CF26
330
AA8A
100
AcDbEntity
  8
DEFPOINTS
  6
Continuous
 62
     0
100
AcDbPoint
 10
246.6538999999995
 20
-501.0
 30
0.0
  0
ENDBLK
  5
AA96
330
AA8A
100
AcDbEntity
  8
0
100
AcDbBlockEnd
  0
BLOCK
  5
AAA2
330
AA97
100
AcDbEntity
  8
0
100
AcDbBlockBegin
  2
*D12
 70
     1
 10
0.0
 20
0.0
 30
0.0
  3
*D12
  1

  0
LINE
  5
CF27
330
AA97
100
AcDbEntity
  8
30
  6
Continuous
 62
     0
370
    -2
100
AcDbLine
 10
199.1679699999995
 20
-580.0000000000002
 30
0.0
 11
247.6538999999994
 21
-580.0000000000002
 31
0.0
  0
LINE
  5
CF28
330
AA97
100
AcDbEntity
  8
30
  6
Continuous
 62
     0
370
    -2
100
AcDbLine
 10
53.0
 20
-565.0000000000002
 30
0.0
 11
247.6538999999994
 21
-565.0000000000002
 31
0.0
  0
LINE
  5
CF29
330
AA97
100
AcDbEntity
  8
30
  6
Continuous
 62
     0
370
    -2
100
AcDbLine
 10
247.1538999999995
 20
-578.0000000000002
 30
0.0
 11
247.1538999999997
 21
-567.0000000000002
 31
0.0
  0
INSERT
  5
CF2A
330
AA97
100
AcDbEntity
  8
30
  6
Continuous
 62
     0
370
    -2
100
AcDbBlockReference
  2
_OPEN
 10
247.1538999999995
 20
-580.0000000000002
 30
0.0
 41
2.0
 42
2.0
 43
2.0
 50
270.0
  0
INSERT
  5
CF2B
330
AA97
100
AcDbEntity
  8
30
  6
Continuous
 62
     0
370
    -2
100
AcDbBlockReference
  2
_OPEN
 10
247.1538999999997
 20
-565.0000000000002
 30
0.0
 41
2.0
 42
2.0
 43
2.0
 50
90.0
  0
MTEXT
  5
CF2C
330
AA97
100
AcDbEntity
  8
30
  6
Continuous
 62
     0
100
AcDbMText
 10
241.1538999999998
 20
-572.4999999999997
 30
0.0
 40
6.0
 41
0.0
 71
     5
 72
     1
  1
\A1;15 
 11
0.0000000000000001
 21
1.0
 31
0.0
 73
     1
 44
1.0
  0
POINT
  5
CF2D
330
AA97
100
AcDbEntity
  8
DEFPOINTS
  6
Continuous
 62
     0
100
AcDbPoint
 10
196.1679699999995
 20
-580.0000000000002
 30
0.0
  0
POINT
  5
CF2E
330
AA97
100
AcDbEntity
  8
DEFPOINTS
  6
Continuous
 62
     0
100
AcDbPoint
 10
50.0
 20
-565.0000000000002
 30
0.0
  0
POINT
  5
CF2F
330
AA97
100
AcDbEntity
  8
DEFPOINTS
  6
Continuous
 62
     0
100
AcDbPoint
 10
247.1538999999997
 20
-565.0000000000002
 30
0.0
  0
ENDBLK
  5
AAA3
330
AA97
100
AcDbEntity
  8
0
100
AcDbBlockEnd
  0
BLOCK
  5
AAAE
330
AAA4
100
AcDbEntity
  8
0
100
AcDbBlockBegin
  2
*D13
 70
     1
 10
0.0
 20
0.0
 30
0.0
  3
*D13
  1

  0
LINE
  5
CF15
330
AAA4
100
AcDbEntity
  8
30
  6
Continuous
 62
     0
370
    -2
100
AcDbLine
 10
-45.0
 20
-573.0000000000002
 30
0.0
 11
-45.0
 21
-734.5958750000002
 31
0.0
  0
LINE
  5
CF16
330
AAA4
100
AcDbEntity
  8
30
  6
Continuous
 62
     0
370
    -2
100
AcDbLine
 10
45.0
 20
-573.0000000000002
 30
0.0
 11
44.99999999999999
 21
-734.5958750000002
 31
0.0
  0
LINE
  5
CF17
330
AAA4
100
AcDbEntity
  8
30
  6
Continuous
 62
     0
370
    -2
100
AcDbLine
 10
-43.0
 20
-734.0958750000003
 30
0.0
 11
42.99999999999999
 21
-734.0958750000003
 31
0.0
  0
INSERT
  5
CF18
330
AAA4
100
AcDbEntity
  8
30
  6
Continuous
 62
     0
370
    -2
100
AcDbBlockReference
  2
_OPEN
 10
-45.0
 20
-734.0958750000003
 30
0.0
 41
2.0
 42
2.0
 43
2.0
 50
180.0
  0
INSERT
  5
CF19
330
AAA4
100
AcDbEntity
  8
30
  6
Continuous
 62
     0
370
    -2
100
AcDbBlockReference
  2
_OPEN
 10
44.99999999999999
 20
-734.0958750000003
 30
0.0
 41
2.0
 42
2.0
 43
2.0
  0
MTEXT
  5
CF1A
330
AAA4
100
AcDbEntity
  8
30
  6
Continuous
 62
     0
100
AcDbMText
 10
-0.0000000000000067
 20
-728.0958750000003
 30
0.0
 40
6.0
 41
0.0
 71
     5
 72
     1
  1
\A1; 90 
 73
     1
 44
1.0
  0
POINT
  5
CF1B
330
AAA4
100
AcDbEntity
  8
DEFPOINTS
  6
Continuous
 62
     0
100
AcDbPoint
 10
-45.0
 20
-570.0000000000001
 30
0.0
  0
POINT
  5
CF1C
330
AAA4
100
AcDbEntity
  8
DEFPOINTS
  6
Continuous
 62
     0
100
AcDbPoint
 10
45.0
 20
-570.0000000000001
 30
0.0
  0
POINT
  5
CF1D
330
AAA4
100
AcDbEntity
  8
DEFPOINTS
  6
Continuous
 62
     0
100
AcDbPoint
 10
44.99999999999999
 20
-734.0958750000003
 30
0.0
  0
ENDBLK
  5
AAAF
330
AAA4
100
AcDbEntity
  8
0
100
AcDbBlockEnd
  0
BLOCK
  5
AAB9
330
AAB0
100
AcDbEntity
  8
0
100
AcDbBlockBegin
  2
*D14
 70
     1
 10
0.0
 20
0.0
 30
0.0
  3
*D14
  1

  0
LINE
  5
CF42
330
AAB0
100
AcDbEntity
  8
30
  6
Continuous
 62
     0
370
    -2
100
AcDbLine
 10
46.77821730202135
 20
-568.0146232314804
 30
0.0
 11
43.22178769797928
 21
-561.9853767685206
 31
0.0
  0
LINE
  5
CF43
330
AAB0
100
AcDbEntity
  8
30
  6
Continuous
 62
     0
370
    -2
100
AcDbLine
 10
42.20566499999992
 20
-560.2627350000004
 30
0.0
 11
41.18954230202048
 21
-558.5400932314797
 31
0.0
  0
LINE
  5
CF44
330
AAB0
100
AcDbEntity
  8
30
  6
Continuous
 62
     0
370
    -2
100
AcDbLine
 10
41.18954230202048
 20
-558.5400932314797
 30
0.0
 11
26.18954230202052
 21
-558.5400932314797
 31
0.0
  0
INSERT
  5
CF45
330
AAB0
100
AcDbEntity
  8
30
  6
Continuous
 62
     0
370
    -2
100
AcDbBlockReference
  2
_OPEN
 10
47.7943400000008
 20
-569.7372650000009
 30
0.0
 41
2.0
 42
2.0
 43
2.0
 50
300.5347832386406
  0
INSERT
  5
CF46
330
AAB0
100
AcDbEntity
  8
30
  6
Continuous
 62
     0
370
    -2
100
AcDbBlockReference
  2
_OPEN
 10
42.20566499999992
 20
-560.2627350000004
 30
0.0
 41
2.0
 42
2.0
 43
2.0
 50
120.5347832386407
  0
MTEXT
  5
CF47
330
AAB0
100
AcDbEntity
  8
30
  6
Continuous
 62
     0
100
AcDbMText
 10
32.1895423020206
 20
-552.5400932314799
 30
0.0
 40
6.0
 41
0.0
 71
     5
 72
     1
  1
\A1;\U+220511
 73
     1
 44
1.0
  0
POINT
  5
CF48
330
AAB0
100
AcDbEntity
  8
DEFPOINTS
  6
Continuous
 62
     0
100
AcDbPoint
 10
42.20566499999992
 20
-560.2627350000004
 30
0.0
  0
POINT
  5
CF49
330
AAB0
100
AcDbEntity
  8
DEFPOINTS
  6
Continuous
 62
     0
100
AcDbPoint
 10
47.7943400000008
 20
-569.7372650000009
 30
0.0
  0
ENDBLK
  5
AABA
330
AAB0
100
AcDbEntity
  8
0
100
AcDbBlockEnd
  0
BLOCK
  5
AAC6
330
AABB
100
AcDbEntity
  8
0
100
AcDbBlockBegin
  2
*D15
 70
     1
 10
0.0
 20
0.0
 30
0.0
  3
*D15
  1

  0
LINE
  5
CF30
330
AABB
100
AcDbEntity
  8
30
  6
Continuous
 62
     0
370
    -2
100
AcDbLine
 10
202.9999999999995
 20
-501.0
 30
0.0
 11
247.1538999999997
 21
-501.0
 31
0.0
  0
LINE
  5
CF31
330
AABB
100
AcDbEntity
  8
30
  6
Continuous
 62
     0
370
    -2
100
AcDbLine
 10
53.0
 20
-407.0000000000002
 30
0.0
 11
247.1538999999998
 21
-407.0000000000002
 31
0.0
  0
LINE
  5
CF32
330
AABB
100
AcDbEntity
  8
30
  6
Continuous
 62
     0
370
    -2
100
AcDbLine
 10
246.6538999999995
 20
-499.0
 30
0.0
 11
246.6538999999995
 21
-409.0000000000001
 31
0.0
  0
INSERT
  5
CF33
330
AABB
100
AcDbEntity
  8
30
  6
Continuous
 62
     0
370
    -2
100
AcDbBlockReference
  2
_OPEN
 10
246.6538999999995
 20
-501.0
 30
0.0
 41
2.0
 42
2.0
 43
2.0
 50
270.0
  0
INSERT
  5
CF34
330
AABB
100
AcDbEntity
  8
30
  6
Continuous
 62
     0
370
    -2
100
AcDbBlockReference
  2
_OPEN
 10
246.6538999999995
 20
-407.0000000000002
 30
0.0
 41
2.0
 42
2.0
 43
2.0
 50
90.0
  0
MTEXT
  5
CF35
330
AABB
100
AcDbEntity
  8
30
  6
Continuous
 62
     0
100
AcDbMText
 10
240.6538999999998
 20
-454.0
 30
0.0
 40
6.0
 41
0.0
 71
     5
 72
     1
  1
\A1; 94 
 11
0.0000000000000001
 21
1.0
 31
0.0
 73
     1
 44
1.0
  0
POINT
  5
CF36
330
AABB
100
AcDbEntity
  8
DEFPOINTS
  6
Continuous
 62
     0
100
AcDbPoint
 10
199.9999999999995
 20
-501.0
 30
0.0
  0
POINT
  5
CF37
330
AABB
100
AcDbEntity
  8
DEFPOINTS
  6
Continuous
 62
     0
100
AcDbPoint
 10
50.0
 20
-407.0000000000002
 30
0.0
  0
POINT
  5
CF38
330
AABB
100
AcDbEntity
  8
DEFPOINTS
  6
Continuous
 62
     0
100
AcDbPoint
 10
246.6538999999995
 20
-407.0000000000002
 30
0.0
  0
ENDBLK
  5
AAC7
330
AABB
100
AcDbEntity
  8
0
100
AcDbBlockEnd
  0
BLOCK
  5
AAD3
330
AAC8
100
AcDbEntity
  8
0
100
AcDbBlockBegin
  2
*D16
 70
     1
 10
0.0
 20
0.0
 30
0.0
  3
*D16
  1

  0
LINE
  5
CF39
330
AAC8
100
AcDbEntity
  8
30
  6
Continuous
 62
     0
370
    -2
100
AcDbLine
 10
53.0
 20
-407.0000000000002
 30
0.0
 11
247.1538999999997
 21
-407.0000000000002
 31
0.0
  0
LINE
  5
CF3A
330
AAC8
100
AcDbEntity
  8
30
  6
Continuous
 62
     0
370
    -2
100
AcDbLine
 10
203.3164099999992
 20
-392.0000000000001
 30
0.0
 11
247.1538999999997
 21
-392.0000000000001
 31
0.0
  0
LINE
  5
CF3B
330
AAC8
100
AcDbEntity
  8
30
  6
Continuous
 62
     0
370
    -2
100
AcDbLine
 10
246.6538999999995
 20
-405.0000000000001
 30
0.0
 11
246.6538999999995
 21
-394.0000000000001
 31
0.0
  0
INSERT
  5
CF3C
330
AAC8
100
AcDbEntity
  8
30
  6
Continuous
 62
     0
370
    -2
100
AcDbBlockReference
  2
_OPEN
 10
246.6538999999995
 20
-407.0000000000002
 30
0.0
 41
2.0
 42
2.0
 43
2.0
 50
270.0
  0
INSERT
  5
CF3D
330
AAC8
100
AcDbEntity
  8
30
  6
Continuous
 62
     0
370
    -2
100
AcDbBlockReference
  2
_OPEN
 10
246.6538999999995
 20
-392.0000000000001
 30
0.0
 41
2.0
 42
2.0
 43
2.0
 50
90.0
  0
MTEXT
  5
CF3E
330
AAC8
100
AcDbEntity
  8
30
  6
Continuous
 62
     0
100
AcDbMText
 10
240.6538999999998
 20
-399.4999999999997
 30
0.0
 40
6.0
 41
0.0
 71
     5
 72
     1
  1
\A1;15 
 11
0.0000000000000001
 21
1.0
 31
0.0
 73
     1
 44
1.0
  0
POINT
  5
CF3F
330
AAC8
100
AcDbEntity
  8
DEFPOINTS
  6
Continuous
 62
     0
100
AcDbPoint
 10
50.0
 20
-407.0000000000002
 30
0.0
  0
POINT
  5
CF40
330
AAC8
100
AcDbEntity
  8
DEFPOINTS
  6
Continuous
 62
     0
100
AcDbPoint
 10
200.3164099999994
 20
-392.0000000000001
 30
0.0
  0
POINT
  5
CF41
330
AAC8
100
AcDbEntity
  8
DEFPOINTS
  6
Continuous
 62
     0
100
AcDbPoint
 10
246.6538999999995
 20
-392.0000000000001
 30
0.0
  0
ENDBLK
  5
AAD4
330
AAC8
100
AcDbEntity
  8
0
100
AcDbBlockEnd
  0
BLOCK
  5
AAE0
330
AAD5
100
AcDbEntity
  8
0
100
AcDbBlockBegin
  2
*D17
 70
     1
 10
0.0
 20
0.0
 30
0.0
  3
*D17
  1

  0
LINE
  5
D069
330
AAD5
100
AcDbEntity
  8
30
  6
Continuous
 62
     0
370
    -2
100
AcDbLine
 10
688.9072299999996
 20
-0.0000000000008513
 30
0.0
 11
837.4539
 21
-0.0000000000008934
 31
0.0
  0
LINE
  5
D06A
330
AAD5
100
AcDbEntity
  8
30
  6
Continuous
 62
     0
370
    -2
100
AcDbLine
 10
762.0476699999997
 20
143.999999999999
 30
0.0
 11
837.4539
 21
143.999999999999
 31
0.0
  0
LINE
  5
D06B
330
AAD5
100
AcDbEntity
  8
30
  6
Continuous
 62
     0
370
    -2
100
AcDbLine
 10
836.9538999999999
 20
1.999999999999104
 30
0.0
 11
836.9538999999999
 21
141.999999999999
 31
0.0
  0
INSERT
  5
D06C
330
AAD5
100
AcDbEntity
  8
30
  6
Continuous
 62
     0
370
    -2
100
AcDbBlockReference
  2
_OPEN
 10
836.9538999999999
 20
-0.0000000000008932
 30
0.0
 41
2.0
 42
2.0
 43
2.0
 50
270.0
  0
INSERT
  5
D06D
330
AAD5
100
AcDbEntity
  8
30
  6
Continuous
 62
     0
370
    -2
100
AcDbBlockReference
  2
_OPEN
 10
836.9538999999999
 20
143.999999999999
 30
0.0
 41
2.0
 42
2.0
 43
2.0
 50
90.0
  0
MTEXT
  5
D06E
330
AAD5
100
AcDbEntity
  8
30
  6
Continuous
 62
     0
100
AcDbMText
 10
830.9538999999999
 20
71.99999999999923
 30
0.0
 40
6.0
 41
0.0
 71
     5
 72
     1
  1
\A1; 144 
 11
0.0000000000000001
 21
1.0
 31
0.0
 73
     1
 44
1.0
  0
POINT
  5
D06F
330
AAD5
100
AcDbEntity
  8
DEFPOINTS
  6
Continuous
 62
     0
100
AcDbPoint
 10
685.9072299999998
 20
-0.0000000000008504
 30
0.0
  0
POINT
  5
D070
330
AAD5
100
AcDbEntity
  8
DEFPOINTS
  6
Continuous
 62
     0
100
AcDbPoint
 10
759.0476699999997
 20
143.999999999999
 30
0.0
  0
POINT
  5
D071
330
AAD5
100
AcDbEntity
  8
DEFPOINTS
  6
Continuous
 62
     0
100
AcDbPoint
 10
836.9538999999999
 20
143.999999999999
 30
0.0
  0
ENDBLK
  5
AAE1
330
AAD5
100
AcDbEntity
  8
0
100
AcDbBlockEnd
  0
BLOCK
  5
AAEC
330
AAE2
100
AcDbEntity
  8
0
100
AcDbBlockBegin
  2
*D18
 70
     1
 10
0.0
 20
0.0
 30
0.0
  3
*D18
  1

  0
LINE
  5
D043
330
AAE2
100
AcDbEntity
  8
30
  6
Continuous
 62
     0
370
    -2
100
AcDbLine
 10
598.0
 20
-93.00000000000084
 30
0.0
 11
598.0
 21
-239.8322434222734
 31
0.0
  0
LINE
  5
D044
330
AAE2
100
AcDbEntity
  8
30
  6
Continuous
 62
     0
370
    -2
100
AcDbLine
 10
660.0
 20
-151.0000000000008
 30
0.0
 11
660.0
 21
-239.8322434222734
 31
0.0
  0
LINE
  5
D045
330
AAE2
100
AcDbEntity
  8
30
  6
Continuous
 62
     0
370
    -2
100
AcDbLine
 10
600.0
 20
-239.3322434222735
 30
0.0
 11
658.0
 21
-239.3322434222735
 31
0.0
  0
INSERT
  5
D046
330
AAE2
100
AcDbEntity
  8
30
  6
Continuous
 62
     0
370
    -2
100
AcDbBlockReference
  2
_OPEN
 10
598.0
 20
-239.3322434222735
 30
0.0
 41
2.0
 42
2.0
 43
2.0
 50
180.0
  0
INSERT
  5
D047
330
AAE2
100
AcDbEntity
  8
30
  6
Continuous
 62
     0
370
    -2
100
AcDbBlockReference
  2
_OPEN
 10
660.0
 20
-239.3322434222735
 30
0.0
 41
2.0
 42
2.0
 43
2.0
  0
MTEXT
  5
D048
330
AAE2
100
AcDbEntity
  8
30
  6
Continuous
 62
     0
100
AcDbMText
 10
629.0
 20
-233.3322434222734
 30
0.0
 40
6.0
 41
0.0
 71
     5
 72
     1
  1
\A1; 62 
 73
     1
 44
1.0
  0
POINT
  5
D049
330
AAE2
100
AcDbEntity
  8
DEFPOINTS
  6
Continuous
 62
     0
100
AcDbPoint
 10
598.0
 20
-90.00000000000083
 30
0.0
  0
POINT
  5
D04A
330
AAE2
100
AcDbEntity
  8
DEFPOINTS
  6
Continuous
 62
     0
100
AcDbPoint
 10
660.0
 20
-148.0000000000008
 30
0.0
  0
POINT
  5
D04B
330
AAE2
100
AcDbEntity
  8
DEFPOINTS
  6
Continuous
 62
     0
100
AcDbPoint
 10
660.0
 20
-239.3322434222735
 30
0.0
  0
ENDBLK
  5
AAED
330
AAE2
100
AcDbEntity
  8
0
100
AcDbBlockEnd
  0
BLOCK
  5
AAF8
330
AAEE
100
AcDbEntity
  8
0
100
AcDbBlockBegin
  2
*D19
 70
     1
 10
0.0
 20
0.0
 30
0.0
  3
*D19
  1

  0
LINE
  5
D060
330
AAEE
100
AcDbEntity
  8
30
  6
Continuous
 62
     0
370
    -2
100
AcDbLine
 10
660.0
 20
-151.0000000000008
 30
0.0
 11
660.0
 21
-239.8322434222734
 31
0.0
  0
LINE
  5
D061
330
AAEE
100
AcDbEntity
  8
30
  6
Continuous
 62
     0
370
    -2
100
AcDbLine
 10
690.0002449999997
 20
-132.0000000000009
 30
0.0
 11
690.0002449999997
 21
-239.8322434222734
 31
0.0
  0
LINE
  5
D062
330
AAEE
100
AcDbEntity
  8
30
  6
Continuous
 62
     0
370
    -2
100
AcDbLine
 10
662.0
 20
-239.3322434222735
 30
0.0
 11
688.0002449999997
 21
-239.3322434222735
 31
0.0
  0
INSERT
  5
D063
330
AAEE
100
AcDbEntity
  8
30
  6
Continuous
 62
     0
370
    -2
100
AcDbBlockReference
  2
_OPEN
 10
660.0
 20
-239.3322434222735
 30
0.0
 41
2.0
 42
2.0
 43
2.0
 50
180.0
  0
INSERT
  5
D064
330
AAEE
100
AcDbEntity
  8
30
  6
Continuous
 62
     0
370
    -2
100
AcDbBlockReference
  2
_OPEN
 10
690.0002449999997
 20
-239.3322434222735
 30
0.0
 41
2.0
 42
2.0
 43
2.0
  0
MTEXT
  5
D065
330
AAEE
100
AcDbEntity
  8
30
  6
Continuous
 62
     0
100
AcDbMText
 10
675.0001224999997
 20
-233.3322434222734
 30
0.0
 40
6.0
 41
0.0
 71
     5
 72
     1
  1
\A1; 30 
 73
     1
 44
1.0
  0
POINT
  5
D066
330
AAEE
100
AcDbEntity
  8
DEFPOINTS
  6
Continuous
 62
     0
100
AcDbPoint
 10
660.0
 20
-148.0000000000008
 30
0.0
  0
POINT
  5
D067
330
AAEE
100
AcDbEntity
  8
DEFPOINTS
  6
Continuous
 62
     0
100
AcDbPoint
 10
690.0002449999997
 20
-129.0000000000009
 30
0.0
  0
POINT
  5
D068
330
AAEE
100
AcDbEntity
  8
DEFPOINTS
  6
Continuous
 62
     0
100
AcDbPoint
 10
690.0002449999997
 20
-239.3322434222735
 30
0.0
  0
ENDBLK
  5
AAF9
330
AAEE
100
AcDbEntity
  8
0
100
AcDbBlockEnd
  0
BLOCK
  5
AB04
330
AAFA
100
AcDbEntity
  8
0
100
AcDbBlockBegin
  2
*D20
 70
     1
 10
0.0
 20
0.0
 30
0.0
  3
*D20
  1

  0
LINE
  5
CFFD
330
AAFA
100
AcDbEntity
  8
30
  6
Continuous
 62
     0
370
    -2
100
AcDbLine
 10
598.0
 20
-93.00000000000084
 30
0.0
 11
598.0
 21
-103.5000000000009
 31
0.0
  0
LINE
  5
CFFE
330
AAFA
100
AcDbEntity
  8
30
  6
Continuous
 62
     0
370
    -2
100
AcDbLine
 10
619.0
 20
-72.00000000000095
 30
0.0
 11
619.0
 21
-103.5000000000009
 31
0.0
  0
LINE
  5
CFFF
330
AAFA
100
AcDbEntity
  8
30
  6
Continuous
 62
     0
370
    -2
100
AcDbLine
 10
600.0
 20
-103.0000000000009
 30
0.0
 11
617.0
 21
-103.0000000000009
 31
0.0
  0
INSERT
  5
D000
330
AAFA
100
AcDbEntity
  8
30
  6
Continuous
 62
     0
370
    -2
100
AcDbBlockReference
  2
_OPEN
 10
598.0
 20
-103.0000000000009
 30
0.0
 41
2.0
 42
2.0
 43
2.0
 50
180.0
  0
INSERT
  5
D001
330
AAFA
100
AcDbEntity
  8
30
  6
Continuous
 62
     0
370
    -2
100
AcDbBlockReference
  2
_OPEN
 10
619.0
 20
-103.0000000000009
 30
0.0
 41
2.0
 42
2.0
 43
2.0
  0
MTEXT
  5
D002
330
AAFA
100
AcDbEntity
  8
30
  6
Continuous
 62
     0
100
AcDbMText
 10
608.4999999999999
 20
-97.00000000000091
 30
0.0
 40
6.0
 41
0.0
 71
     5
 72
     1
  1
\A1; 21 
 73
     1
 44
1.0
  0
POINT
  5
D003
330
AAFA
100
AcDbEntity
  8
DEFPOINTS
  6
Continuous
 62
     0
100
AcDbPoint
 10
598.0
 20
-90.00000000000083
 30
0.0
  0
POINT
  5
D004
330
AAFA
100
AcDbEntity
  8
DEFPOINTS
  6
Continuous
 62
     0
100
AcDbPoint
 10
619.0
 20
-69.00000000000097
 30
0.0
  0
POINT
  5
D005
330
AAFA
100
AcDbEntity
  8
DEFPOINTS
  6
Continuous
 62
     0
100
AcDbPoint
 10
619.0
 20
-103.0000000000009
 30
0.0
  0
ENDBLK
  5
AB05
330
AAFA
100
AcDbEntity
  8
0
100
AcDbBlockEnd
  0
BLOCK
  5
AB11
330
AB06
100
AcDbEntity
  8
0
100
AcDbBlockBegin
  2
*D21
 70
     1
 10
0.0
 20
0.0
 30
0.0
  3
*D21
  1

  0
LINE
  5
CFF4
330
AB06
100
AcDbEntity
  8
30
  6
Continuous
 62
     0
370
    -2
100
AcDbLine
 10
778.0002450000003
 20
-114.0000000000007
 30
0.0
 11
837.4539
 21
-114.0000000000007
 31
0.0
  0
LINE
  5
CFF5
330
AB06
100
AcDbEntity
  8
30
  6
Continuous
 62
     0
370
    -2
100
AcDbLine
 10
688.9072299999996
 20
-0.0000000000008513
 30
0.0
 11
837.4539
 21
-0.0000000000008934
 31
0.0
  0
LINE
  5
CFF6
330
AB06
100
AcDbEntity
  8
30
  6
Continuous
 62
     0
370
    -2
100
AcDbLine
 10
836.9538999999999
 20
-112.0000000000007
 30
0.0
 11
836.9538999999999
 21
-2.000000000000893
 31
0.0
  0
INSERT
  5
CFF7
330
AB06
100
AcDbEntity
  8
30
  6
Continuous
 62
     0
370
    -2
100
AcDbBlockReference
  2
_OPEN
 10
836.9538999999999
 20
-114.0000000000007
 30
0.0
 41
2.0
 42
2.0
 43
2.0
 50
270.0
  0
INSERT
  5
CFF8
330
AB06
100
AcDbEntity
  8
30
  6
Continuous
 62
     0
370
    -2
100
AcDbBlockReference
  2
_OPEN
 10
836.9538999999999
 20
-0.0000000000008932
 30
0.0
 41
2.0
 42
2.0
 43
2.0
 50
90.0
  0
MTEXT
  5
CFF9
330
AB06
100
AcDbEntity
  8
30
  6
Continuous
 62
     0
100
AcDbMText
 10
830.9538999999999
 20
-57.00000000000074
 30
0.0
 40
6.0
 41
0.0
 71
     5
 72
     1
  1
\A1; 114 
 11
0.0000000000000001
 21
1.0
 31
0.0
 73
     1
 44
1.0
  0
POINT
  5
CFFA
330
AB06
100
AcDbEntity
  8
DEFPOINTS
  6
Continuous
 62
     0
100
AcDbPoint
 10
775.0002450000001
 20
-114.0000000000007
 30
0.0
  0
POINT
  5
CFFB
330
AB06
100
AcDbEntity
  8
DEFPOINTS
  6
Continuous
 62
     0
100
AcDbPoint
 10
685.9072299999998
 20
-0.0000000000008504
 30
0.0
  0
POINT
  5
CFFC
330
AB06
100
AcDbEntity
  8
DEFPOINTS
  6
Continuous
 62
     0
100
AcDbPoint
 10
836.9538999999999
 20
-0.0000000000008932
 30
0.0
  0
ENDBLK
  5
AB12
330
AB06
100
AcDbEntity
  8
0
100
AcDbBlockEnd
  0
BLOCK
  5
AB57
330
AB4C
100
AcDbEntity
  8
0
100
AcDbBlockBegin
  2
*D22
 70
     1
 10
0.0
 20
0.0
 30
0.0
  3
*D22
  1

  0
LINE
  5
D072
330
AB4C
100
AcDbEntity
  8
30
  6
Continuous
 62
     0
370
    -2
100
AcDbLine
 10
753.0002450000003
 20
136.4999999999989
 30
0.0
 11
808.7539000000001
 21
136.4999999999989
 31
0.0
  0
LINE
  5
D073
330
AB4C
100
AcDbEntity
  8
30
  6
Continuous
 62
     0
370
    -2
100
AcDbLine
 10
753.0002450000003
 20
151.499999999999
 30
0.0
 11
808.7539000000001
 21
151.499999999999
 31
0.0
  0
LINE
  5
D074
330
AB4C
100
AcDbEntity
  8
30
  6
Continuous
 62
     0
370
    -2
100
AcDbLine
 10
808.2539000000002
 20
138.499999999999
 30
0.0
 11
808.2539000000002
 21
149.4999999999991
 31
0.0
  0
INSERT
  5
D075
330
AB4C
100
AcDbEntity
  8
30
  6
Continuous
 62
     0
370
    -2
100
AcDbBlockReference
  2
_OPEN
 10
808.2539000000002
 20
136.4999999999989
 30
0.0
 41
2.0
 42
2.0
 43
2.0
 50
270.0
  0
INSERT
  5
D076
330
AB4C
100
AcDbEntity
  8
30
  6
Continuous
 62
     0
370
    -2
100
AcDbBlockReference
  2
_OPEN
 10
808.2539000000002
 20
151.499999999999
 30
0.0
 41
2.0
 42
2.0
 43
2.0
 50
90.0
  0
MTEXT
  5
D077
330
AB4C
100
AcDbEntity
  8
30
  6
Continuous
 62
     0
100
AcDbMText
 10
802.2539000000001
 20
143.999999999999
 30
0.0
 40
6.0
 41
0.0
 71
     5
 72
     1
  1
\A1; 15 
 11
0.0000000000000001
 21
1.0
 31
0.0
 73
     1
 44
1.0
  0
POINT
  5
D078
330
AB4C
100
AcDbEntity
  8
DEFPOINTS
  6
Continuous
 62
     0
100
AcDbPoint
 10
750.0002450000001
 20
136.4999999999989
 30
0.0
  0
POINT
  5
D079
330
AB4C
100
AcDbEntity
  8
DEFPOINTS
  6
Continuous
 62
     0
100
AcDbPoint
 10
750.0002450000001
 20
151.499999999999
 30
0.0
  0
POINT
  5
D07A
330
AB4C
100
AcDbEntity
  8
DEFPOINTS
  6
Continuous
 62
     0
100
AcDbPoint
 10
808.2539000000002
 20
151.499999999999
 30
0.0
  0
ENDBLK
  5
AB58
330
AB4C
100
AcDbEntity
  8
0
100
AcDbBlockEnd
  0
BLOCK
  5
B482
330
B477
100
AcDbEntity
  8
0
100
AcDbBlockBegin
  2
*D23
 70
     1
 10
0.0
 20
0.0
 30
0.0
  3
*D23
  1

  0
LINE
  5
D055
330
B477
100
AcDbEntity
  8
30
  6
Continuous
 62
     0
370
    -2
100
AcDbLine
 10
690.0002449999997
 20
-132.0000000000009
 30
0.0
 11
690.0002449999997
 21
-239.8322434222734
 31
0.0
  0
LINE
  5
D056
330
B477
100
AcDbEntity
  8
30
  6
Continuous
 62
     0
370
    -2
100
AcDbLine
 10
698.0002450000001
 20
-132.0000000000009
 30
0.0
 11
698.0002450000001
 21
-239.8322434222734
 31
0.0
  0
LINE
  5
D057
330
B477
100
AcDbEntity
  8
30
  6
Continuous
 62
     0
370
    -2
100
AcDbLine
 10
688.0002449999997
 20
-239.3322434222735
 30
0.0
 11
686.0002449999996
 21
-239.3322434222735
 31
0.0
  0
LINE
  5
D058
330
B477
100
AcDbEntity
  8
30
  6
Continuous
 62
     0
370
    -2
100
AcDbLine
 10
700.0002450000001
 20
-239.3322434222735
 30
0.0
 11
702.0002450000001
 21
-239.3322434222735
 31
0.0
  0
LINE
  5
D059
330
B477
100
AcDbEntity
  8
30
  6
Continuous
 62
     0
370
    -2
100
AcDbLine
 10
690.0002449999997
 20
-239.3322434222735
 30
0.0
 11
698.0002450000001
 21
-239.3322434222735
 31
0.0
  0
INSERT
  5
D05A
330
B477
100
AcDbEntity
  8
30
  6
Continuous
 62
     0
370
    -2
100
AcDbBlockReference
  2
_OPEN
 10
690.0002449999997
 20
-239.3322434222735
 30
0.0
 41
2.0
 42
2.0
 43
2.0
  0
INSERT
  5
D05B
330
B477
100
AcDbEntity
  8
30
  6
Continuous
 62
     0
370
    -2
100
AcDbBlockReference
  2
_OPEN
 10
698.0002450000001
 20
-239.3322434222735
 30
0.0
 41
2.0
 42
2.0
 43
2.0
 50
180.0
  0
MTEXT
  5
D05C
330
B477
100
AcDbEntity
  8
30
  6
Continuous
 62
     0
100
AcDbMText
 10
694.0002449999997
 20
-233.3322434222734
 30
0.0
 40
6.0
 41
0.0
 71
     5
 72
     1
  1
\A1;8
 73
     1
 44
1.0
  0
POINT
  5
D05D
330
B477
100
AcDbEntity
  8
DEFPOINTS
  6
Continuous
 62
     0
100
AcDbPoint
 10
690.0002449999997
 20
-129.0000000000009
 30
0.0
  0
POINT
  5
D05E
330
B477
100
AcDbEntity
  8
DEFPOINTS
  6
Continuous
 62
     0
100
AcDbPoint
 10
698.0002450000001
 20
-129.0000000000009
 30
0.0
  0
POINT
  5
D05F
330
B477
100
AcDbEntity
  8
DEFPOINTS
  6
Continuous
 62
     0
100
AcDbPoint
 10
698.0002450000001
 20
-239.3322434222735
 30
0.0
  0
ENDBLK
  5
B483
330
B477
100
AcDbEntity
  8
0
100
AcDbBlockEnd
  0
BLOCK
  5
B48F
330
B485
100
AcDbEntity
  8
0
100
AcDbBlockBegin
  2
*D24
 70
     1
 10
0.0
 20
0.0
 30
0.0
  3
*D24
  1

  0
LINE
  5
D006
330
B485
100
AcDbEntity
  8
30
  6
Continuous
 62
     0
370
    -2
100
AcDbLine
 10
698.0002450000001
 20
-135.0000000000009
 30
0.0
 11
698.0002450000001
 21
-239.845756935787
 31
0.0
  0
LINE
  5
D007
330
B485
100
AcDbEntity
  8
30
  6
Continuous
 62
     0
370
    -2
100
AcDbLine
 10
730.0002449999997
 20
-132.0000000000009
 30
0.0
 11
730.0002449999997
 21
-239.845756935787
 31
0.0
  0
LINE
  5
D008
330
B485
100
AcDbEntity
  8
30
  6
Continuous
 62
     0
370
    -2
100
AcDbLine
 10
700.0002450000001
 20
-239.345756935787
 30
0.0
 11
728.0002449999997
 21
-239.345756935787
 31
0.0
  0
INSERT
  5
D009
330
B485
100
AcDbEntity
  8
30
  6
Continuous
 62
     0
370
    -2
100
AcDbBlockReference
  2
_OPEN
 10
698.0002450000001
 20
-239.345756935787
 30
0.0
 41
2.0
 42
2.0
 43
2.0
 50
180.0
  0
INSERT
  5
D00A
330
B485
100
AcDbEntity
  8
30
  6
Continuous
 62
     0
370
    -2
100
AcDbBlockReference
  2
_OPEN
 10
730.0002449999997
 20
-239.345756935787
 30
0.0
 41
2.0
 42
2.0
 43
2.0
  0
MTEXT
  5
D00B
330
B485
100
AcDbEntity
  8
30
  6
Continuous
 62
     0
100
AcDbMText
 10
714.0002449999997
 20
-233.345756935787
 30
0.0
 40
6.0
 41
0.0
 71
     5
 72
     1
  1
\A1;32
 73
     1
 44
1.0
  0
POINT
  5
D00C
330
B485
100
AcDbEntity
  8
DEFPOINTS
  6
Continuous
 62
     0
100
AcDbPoint
 10
698.0002450000001
 20
-132.0000000000009
 30
0.0
  0
POINT
  5
D00D
330
B485
100
AcDbEntity
  8
DEFPOINTS
  6
Continuous
 62
     0
100
AcDbPoint
 10
730.0002449999997
 20
-129.0000000000009
 30
0.0
  0
POINT
  5
D00E
330
B485
100
AcDbEntity
  8
DEFPOINTS
  6
Continuous
 62
     0
100
AcDbPoint
 10
730.0002449999997
 20
-239.345756935787
 30
0.0
  0
ENDBLK
  5
B490
330
B485
100
AcDbEntity
  8
0
100
AcDbBlockEnd
  0
BLOCK
  5
B5A1
330
B596
100
AcDbEntity
  8
0
100
AcDbBlockBegin
  2
*D25
 70
     1
 10
0.0
 20
0.0
 30
0.0
  3
*D25
  1

  0
LINE
  5
CFE1
330
B596
100
AcDbEntity
  8
30
  6
Continuous
 62
     0
370
    -2
100
AcDbLine
 10
443.0
 20
1.49999999999909
 30
0.0
 11
443.0
 21
-260.3322434222736
 31
0.0
  0
LINE
  5
CFE2
330
B596
100
AcDbEntity
  8
30
  6
Continuous
 62
     0
370
    -2
100
AcDbLine
 10
453.0
 20
-55.50000000000091
 30
0.0
 11
453.0
 21
-260.3322434222736
 31
0.0
  0
LINE
  5
CFE3
330
B596
100
AcDbEntity
  8
30
  6
Continuous
 62
     0
370
    -2
100
AcDbLine
 10
451.0
 20
-259.8322434222736
 30
0.0
 11
445.0
 21
-259.8322434222736
 31
0.0
  0
LINE
  5
CFE4
330
B596
100
AcDbEntity
  8
30
  6
Continuous
 62
     0
370
    -2
100
AcDbLine
 10
443.0
 20
-259.8322434222736
 30
0.0
 11
424.3999999999997
 21
-259.8322434222736
 31
0.0
  0
INSERT
  5
CFE5
330
B596
100
AcDbEntity
  8
30
  6
Continuous
 62
     0
370
    -2
100
AcDbBlockReference
  2
_OPEN
 10
453.0
 20
-259.8322434222736
 30
0.0
 41
2.0
 42
2.0
 43
2.0
  0
INSERT
  5
CFE6
330
B596
100
AcDbEntity
  8
30
  6
Continuous
 62
     0
370
    -2
100
AcDbBlockReference
  2
_OPEN
 10
443.0
 20
-259.8322434222736
 30
0.0
 41
2.0
 42
2.0
 43
2.0
 50
180.0
  0
MTEXT
  5
CFE7
330
B596
100
AcDbEntity
  8
30
  6
Continuous
 62
     0
100
AcDbMText
 10
432.6999999999999
 20
-253.8322434222734
 30
0.0
 40
6.0
 41
0.0
 71
     5
 72
     1
  1
\A1; 10 
 73
     1
 44
1.0
  0
POINT
  5
CFE8
330
B596
100
AcDbEntity
  8
DEFPOINTS
  6
Continuous
 62
     0
100
AcDbPoint
 10
443.0
 20
4.499999999999091
 30
0.0
  0
POINT
  5
CFE9
330
B596
100
AcDbEntity
  8
DEFPOINTS
  6
Continuous
 62
     0
100
AcDbPoint
 10
453.0
 20
-52.50000000000091
 30
0.0
  0
POINT
  5
CFEA
330
B596
100
AcDbEntity
  8
DEFPOINTS
  6
Continuous
 62
     0
100
AcDbPoint
 10
453.0
 20
-259.8322434222736
 30
0.0
  0
ENDBLK
  5
B5A2
330
B596
100
AcDbEntity
  8
0
100
AcDbBlockEnd
  0
BLOCK
  5
B5AD
330
B5A3
100
AcDbEntity
  8
0
100
AcDbBlockBegin
  2
*D26
 70
     1
 10
0.0
 20
0.0
 30
0.0
  3
*D26
  1

  0
LINE
  5
CFD8
330
B5A3
100
AcDbEntity
  8
30
  6
Continuous
 62
     0
370
    -2
100
AcDbLine
 10
329.0
 20
-5.800000000000862
 30
0.0
 11
329.0
 21
-280.3322434222735
 31
0.0
  0
LINE
  5
CFD9
330
B5A3
100
AcDbEntity
  8
30
  6
Continuous
 62
     0
370
    -2
100
AcDbLine
 10
409.0
 20
-5.800000000000862
 30
0.0
 11
409.0
 21
-280.3322434222735
 31
0.0
  0
LINE
  5
CFDA
330
B5A3
100
AcDbEntity
  8
30
  6
Continuous
 62
     0
370
    -2
100
AcDbLine
 10
331.0
 20
-279.8322434222736
 30
0.0
 11
407.0
 21
-279.8322434222736
 31
0.0
  0
INSERT
  5
CFDB
330
B5A3
100
AcDbEntity
  8
30
  6
Continuous
 62
     0
370
    -2
100
AcDbBlockReference
  2
_OPEN
 10
329.0
 20
-279.8322434222736
 30
0.0
 41
2.0
 42
2.0
 43
2.0
 50
180.0
  0
INSERT
  5
CFDC
330
B5A3
100
AcDbEntity
  8
30
  6
Continuous
 62
     0
370
    -2
100
AcDbBlockReference
  2
_OPEN
 10
409.0
 20
-279.8322434222736
 30
0.0
 41
2.0
 42
2.0
 43
2.0
  0
MTEXT
  5
CFDD
330
B5A3
100
AcDbEntity
  8
30
  6
Continuous
 62
     0
100
AcDbMText
 10
369.0
 20
-273.8322434222736
 30
0.0
 40
6.0
 41
0.0
 71
     5
 72
     1
  1
\A1; 80 
 73
     1
 44
1.0
  0
POINT
  5
CFDE
330
B5A3
100
AcDbEntity
  8
DEFPOINTS
  6
Continuous
 62
     0
100
AcDbPoint
 10
329.0
 20
-2.80000000000086
 30
0.0
  0
POINT
  5
CFDF
330
B5A3
100
AcDbEntity
  8
DEFPOINTS
  6
Continuous
 62
     0
100
AcDbPoint
 10
409.0
 20
-2.80000000000086
 30
0.0
  0
POINT
  5
CFE0
330
B5A3
100
AcDbEntity
  8
DEFPOINTS
  6
Continuous
 62
     0
100
AcDbPoint
 10
409.0
 20
-279.8322434222736
 30
0.0
  0
ENDBLK
  5
B5AE
330
B5A3
100
AcDbEntity
  8
0
100
AcDbBlockEnd
  0
BLOCK
  5
B5B9
330
B5AF
100
AcDbEntity
  8
0
100
AcDbBlockBegin
  2
*D27
 70
     1
 10
0.0
 20
0.0
 30
0.0
  3
*D27
  1

  0
LINE
  5
CFEB
330
B5AF
100
AcDbEntity
  8
30
  6
Continuous
 62
     0
370
    -2
100
AcDbLine
 10
452.0000000000004
 20
-140.0000000000017
 30
0.0
 11
379.4999999999998
 21
-140.0000000000017
 31
0.0
  0
LINE
  5
CFEC
330
B5AF
100
AcDbEntity
  8
30
  6
Continuous
 62
     0
370
    -2
100
AcDbLine
 10
389.1000000000008
 20
-0.0000000000018159
 30
0.0
 11
379.4999999999998
 21
-0.0000000000018132
 31
0.0
  0
LINE
  5
CFED
330
B5AF
100
AcDbEntity
  8
30
  6
Continuous
 62
     0
370
    -2
100
AcDbLine
 10
379.9999999999998
 20
-138.0000000000014
 30
0.0
 11
380.0
 21
-2.000000000001813
 31
0.0
  0
INSERT
  5
CFEE
330
B5AF
100
AcDbEntity
  8
30
  6
Continuous
 62
     0
370
    -2
100
AcDbBlockReference
  2
_OPEN
 10
379.9999999999998
 20
-140.0000000000017
 30
0.0
 41
2.0
 42
2.0
 43
2.0
 50
270.0
  0
INSERT
  5
CFEF
330
B5AF
100
AcDbEntity
  8
30
  6
Continuous
 62
     0
370
    -2
100
AcDbBlockReference
  2
_OPEN
 10
380.0
 20
-0.0000000000018134
 30
0.0
 41
2.0
 42
2.0
 43
2.0
 50
90.0
  0
MTEXT
  5
CFF0
330
B5AF
100
AcDbEntity
  8
30
  6
Continuous
 62
     0
100
AcDbMText
 10
374.0
 20
-70.00000000000174
 30
0.0
 40
6.0
 41
0.0
 71
     5
 72
     1
  1
\A1; 140 
 11
0.0000000000000001
 21
1.0
 31
0.0
 73
     1
 44
1.0
  0
POINT
  5
CFF1
330
B5AF
100
AcDbEntity
  8
DEFPOINTS
  6
Continuous
 62
     0
100
AcDbPoint
 10
455.0000000000004
 20
-140.0000000000017
 30
0.0
  0
POINT
  5
CFF2
330
B5AF
100
AcDbEntity
  8
DEFPOINTS
  6
Continuous
 62
     0
100
AcDbPoint
 10
392.1000000000008
 20
-0.0000000000018168
 30
0.0
  0
POINT
  5
CFF3
330
B5AF
100
AcDbEntity
  8
DEFPOINTS
  6
Continuous
 62
     0
100
AcDbPoint
 10
380.0
 20
-0.0000000000018134
 30
0.0
  0
ENDBLK
  5
B5BA
330
B5AF
100
AcDbEntity
  8
0
100
AcDbBlockEnd
  0
BLOCK
  5
B5C5
330
B5BB
100
AcDbEntity
  8
0
100
AcDbBlockBegin
  2
*D28
 70
     1
 10
0.0
 20
0.0
 30
0.0
  3
*D28
  1

  0
LINE
  5
D021
330
B5BB
100
AcDbEntity
  8
30
  6
Continuous
 62
     0
370
    -2
100
AcDbLine
 10
460.0
 20
-148.0000000000009
 30
0.0
 11
460.0
 21
-240.3322434222736
 31
0.0
  0
LINE
  5
D022
330
B5BB
100
AcDbEntity
  8
30
  6
Continuous
 62
     0
370
    -2
100
AcDbLine
 10
580.0
 20
-178.0000000000009
 30
0.0
 11
580.0
 21
-240.3322434222736
 31
0.0
  0
LINE
  5
D023
330
B5BB
100
AcDbEntity
  8
30
  6
Continuous
 62
     0
370
    -2
100
AcDbLine
 10
462.0
 20
-239.8322434222734
 30
0.0
 11
578.0
 21
-239.8322434222734
 31
0.0
  0
INSERT
  5
D024
330
B5BB
100
AcDbEntity
  8
30
  6
Continuous
 62
     0
370
    -2
100
AcDbBlockReference
  2
_OPEN
 10
460.0
 20
-239.8322434222734
 30
0.0
 41
2.0
 42
2.0
 43
2.0
 50
180.0
  0
INSERT
  5
D025
330
B5BB
100
AcDbEntity
  8
30
  6
Continuous
 62
     0
370
    -2
100
AcDbBlockReference
  2
_OPEN
 10
580.0
 20
-239.8322434222734
 30
0.0
 41
2.0
 42
2.0
 43
2.0
  0
MTEXT
  5
D026
330
B5BB
100
AcDbEntity
  8
30
  6
Continuous
 62
     0
100
AcDbMText
 10
520.0
 20
-233.8322434222734
 30
0.0
 40
6.0
 41
0.0
 71
     5
 72
     1
  1
\A1; 120 
 73
     1
 44
1.0
  0
POINT
  5
D027
330
B5BB
100
AcDbEntity
  8
DEFPOINTS
  6
Continuous
 62
     0
100
AcDbPoint
 10
460.0
 20
-145.0000000000009
 30
0.0
  0
POINT
  5
D028
330
B5BB
100
AcDbEntity
  8
DEFPOINTS
  6
Continuous
 62
     0
100
AcDbPoint
 10
580.0
 20
-175.0000000000009
 30
0.0
  0
POINT
  5
D029
330
B5BB
100
AcDbEntity
  8
DEFPOINTS
  6
Continuous
 62
     0
100
AcDbPoint
 10
580.0
 20
-239.8322434222734
 30
0.0
  0
ENDBLK
  5
B5C6
330
B5BB
100
AcDbEntity
  8
0
100
AcDbBlockEnd
  0
BLOCK
  5
B5D1
330
B5C7
100
AcDbEntity
  8
0
100
AcDbBlockBegin
  2
*D29
 70
     1
 10
0.0
 20
0.0
 30
0.0
  3
*D29
  1

  0
LINE
  5
CFCF
330
B5C7
100
AcDbEntity
  8
30
  6
Continuous
 62
     0
370
    -2
100
AcDbLine
 10
453.0
 20
-55.50000000000091
 30
0.0
 11
453.0
 21
-260.3322434222736
 31
0.0
  0
LINE
  5
CFD0
330
B5C7
100
AcDbEntity
  8
30
  6
Continuous
 62
     0
370
    -2
100
AcDbLine
 10
580.0
 20
-178.0000000000009
 30
0.0
 11
580.0
 21
-260.3322434222736
 31
0.0
  0
LINE
  5
CFD1
330
B5C7
100
AcDbEntity
  8
30
  6
Continuous
 62
     0
370
    -2
100
AcDbLine
 10
455.0
 20
-259.8322434222736
 30
0.0
 11
578.0
 21
-259.8322434222736
 31
0.0
  0
INSERT
  5
CFD2
330
B5C7
100
AcDbEntity
  8
30
  6
Continuous
 62
     0
370
    -2
100
AcDbBlockReference
  2
_OPEN
 10
453.0
 20
-259.8322434222736
 30
0.0
 41
2.0
 42
2.0
 43
2.0
 50
180.0
  0
INSERT
  5
CFD3
330
B5C7
100
AcDbEntity
  8
30
  6
Continuous
 62
     0
370
    -2
100
AcDbBlockReference
  2
_OPEN
 10
580.0
 20
-259.8322434222736
 30
0.0
 41
2.0
 42
2.0
 43
2.0
  0
MTEXT
  5
CFD4
330
B5C7
100
AcDbEntity
  8
30
  6
Continuous
 62
     0
100
AcDbMText
 10
516.5
 20
-253.8322434222734
 30
0.0
 40
6.0
 41
0.0
 71
     5
 72
     1
  1
\A1; 127 
 73
     1
 44
1.0
  0
POINT
  5
CFD5
330
B5C7
100
AcDbEntity
  8
DEFPOINTS
  6
Continuous
 62
     0
100
AcDbPoint
 10
453.0
 20
-52.50000000000091
 30
0.0
  0
POINT
  5
CFD6
330
B5C7
100
AcDbEntity
  8
DEFPOINTS
  6
Continuous
 62
     0
100
AcDbPoint
 10
580.0
 20
-175.0000000000009
 30
0.0
  0
POINT
  5
CFD7
330
B5C7
100
AcDbEntity
  8
DEFPOINTS
  6
Continuous
 62
     0
100
AcDbPoint
 10
580.0
 20
-259.8322434222736
 30
0.0
  0
ENDBLK
  5
B5D2
330
B5C7
100
AcDbEntity
  8
0
100
AcDbBlockEnd
  0
BLOCK
  5
B5DD
330
B5D3
100
AcDbEntity
  8
0
100
AcDbBlockBegin
  2
*D30
 70
     1
 10
0.0
 20
0.0
 30
0.0
  3
*D30
  1

  0
LINE
  5
CFC6
330
B5D3
100
AcDbEntity
  8
30
  6
Continuous
 62
     0
370
    -2
100
AcDbLine
 10
409.0
 20
-10.80000000000086
 30
0.0
 11
409.0
 21
-280.3322434222735
 31
0.0
  0
LINE
  5
CFC7
330
B5D3
100
AcDbEntity
  8
30
  6
Continuous
 62
     0
370
    -2
100
AcDbLine
 10
580.0
 20
-173.0000000000009
 30
0.0
 11
580.0
 21
-280.3322434222735
 31
0.0
  0
LINE
  5
CFC8
330
B5D3
100
AcDbEntity
  8
30
  6
Continuous
 62
     0
370
    -2
100
AcDbLine
 10
411.0
 20
-279.8322434222736
 30
0.0
 11
578.0
 21
-279.8322434222736
 31
0.0
  0
INSERT
  5
CFC9
330
B5D3
100
AcDbEntity
  8
30
  6
Continuous
 62
     0
370
    -2
100
AcDbBlockReference
  2
_OPEN
 10
409.0
 20
-279.8322434222736
 30
0.0
 41
2.0
 42
2.0
 43
2.0
 50
180.0
  0
INSERT
  5
CFCA
330
B5D3
100
AcDbEntity
  8
30
  6
Continuous
 62
     0
370
    -2
100
AcDbBlockReference
  2
_OPEN
 10
580.0
 20
-279.8322434222736
 30
0.0
 41
2.0
 42
2.0
 43
2.0
  0
MTEXT
  5
CFCB
330
B5D3
100
AcDbEntity
  8
30
  6
Continuous
 62
     0
100
AcDbMText
 10
494.5
 20
-273.8322434222736
 30
0.0
 40
6.0
 41
0.0
 71
     5
 72
     1
  1
\A1; 171 
 73
     1
 44
1.0
  0
POINT
  5
CFCC
330
B5D3
100
AcDbEntity
  8
DEFPOINTS
  6
Continuous
 62
     0
100
AcDbPoint
 10
409.0
 20
-7.800000000000862
 30
0.0
  0
POINT
  5
CFCD
330
B5D3
100
AcDbEntity
  8
DEFPOINTS
  6
Continuous
 62
     0
100
AcDbPoint
 10
580.0
 20
-170.0000000000009
 30
0.0
  0
POINT
  5
CFCE
330
B5D3
100
AcDbEntity
  8
DEFPOINTS
  6
Continuous
 62
     0
100
AcDbPoint
 10
580.0
 20
-279.8322434222736
 30
0.0
  0
ENDBLK
  5
B5DE
330
B5D3
100
AcDbEntity
  8
0
100
AcDbBlockEnd
  0
BLOCK
  5
B980
330
B976
100
AcDbEntity
  8
0
100
AcDbBlockBegin
  2
*D31
 70
     1
 10
0.0
 20
0.0
 30
0.0
  3
*D31
  1

  0
LINE
  5
D12A
330
B976
100
AcDbEntity
  8
30
 62
     0
370
    -2
100
AcDbLine
 10
0.0000000000000002
 20
607.9999999999998
 30
0.0
 11
0.0000000000000029
 21
652.595875
 31
0.0
  0
LINE
  5
D12B
330
B976
100
AcDbEntity
  8
30
 62
     0
370
    -2
100
AcDbLine
 10
70.0
 20
607.9999999999998
 30
0.0
 11
70.0
 21
652.595875
 31
0.0
  0
LINE
  5
D12C
330
B976
100
AcDbEntity
  8
30
 62
     0
370
    -2
100
AcDbLine
 10
2.000000000000002
 20
652.095875
 30
0.0
 11
68.0
 21
652.095875
 31
0.0
  0
INSERT
  5
D12D
330
B976
100
AcDbEntity
  8
30
 62
     0
370
    -2
100
AcDbBlockReference
  2
_OPEN
 10
0.0000000000000029
 20
652.095875
 30
0.0
 41
2.0
 42
2.0
 43
2.0
 50
180.0
  0
INSERT
  5
D12E
330
B976
100
AcDbEntity
  8
30
 62
     0
370
    -2
100
AcDbBlockReference
  2
_OPEN
 10
70.0
 20
652.095875
 30
0.0
 41
2.0
 42
2.0
 43
2.0
  0
MTEXT
  5
D12F
330
B976
100
AcDbEntity
  8
30
 62
     0
100
AcDbMText
 10
35.0
 20
658.0958749999997
 30
0.0
 40
6.0
 41
0.0
 71
     5
 72
     1
  1
\A1; 70 
 73
     1
 44
1.0
  0
POINT
  5
D130
330
B976
100
AcDbEntity
  8
DEFPOINTS
 62
     0
100
AcDbPoint
 10
0.0
 20
604.9999999999998
 30
0.0
  0
POINT
  5
D131
330
B976
100
AcDbEntity
  8
DEFPOINTS
 62
     0
100
AcDbPoint
 10
70.0
 20
604.9999999999998
 30
0.0
  0
POINT
  5
D132
330
B976
100
AcDbEntity
  8
DEFPOINTS
 62
     0
100
AcDbPoint
 10
70.0
 20
652.095875
 30
0.0
  0
ENDBLK
  5
B981
330
B976
100
AcDbEntity
  8
0
100
AcDbBlockEnd
  0
BLOCK
  5
B98C
330
B982
100
AcDbEntity
  8
0
100
AcDbBlockBegin
  2
*D32
 70
     1
 10
0.0
 20
0.0
 30
0.0
  3
*D32
  1

  0
LINE
  5
D0E5
330
B982
100
AcDbEntity
  8
30
 62
     0
370
    -2
100
AcDbLine
 10
-69.99993999999985
 20
645.0
 30
0.0
 11
-69.99993999999985
 21
652.595875
 31
0.0
  0
LINE
  5
D0E6
330
B982
100
AcDbEntity
  8
30
 62
     0
370
    -2
100
AcDbLine
 10
0.0000600000001329
 20
607.9999999999998
 30
0.0
 11
0.0000600000001357
 21
652.595875
 31
0.0
  0
LINE
  5
D0E7
330
B982
100
AcDbEntity
  8
30
 62
     0
370
    -2
100
AcDbLine
 10
-67.99993999999987
 20
652.095875
 30
0.0
 11
-1.999939999999864
 21
652.095875
 31
0.0
  0
INSERT
  5
D0E8
330
B982
100
AcDbEntity
  8
30
 62
     0
370
    -2
100
AcDbBlockReference
  2
_OPEN
 10
-69.99993999999985
 20
652.095875
 30
0.0
 41
2.0
 42
2.0
 43
2.0
 50
180.0
  0
INSERT
  5
D0E9
330
B982
100
AcDbEntity
  8
30
 62
     0
370
    -2
100
AcDbBlockReference
  2
_OPEN
 10
0.0000600000001356
 20
652.095875
 30
0.0
 41
2.0
 42
2.0
 43
2.0
  0
MTEXT
  5
D0EA
330
B982
100
AcDbEntity
  8
30
 62
     0
100
AcDbMText
 10
-34.99993999999986
 20
658.0958749999997
 30
0.0
 40
6.0
 41
0.0
 71
     5
 72
     1
  1
\A1; 70 
 73
     1
 44
1.0
  0
POINT
  5
D0EB
330
B982
100
AcDbEntity
  8
DEFPOINTS
 62
     0
100
AcDbPoint
 10
-69.99993999999985
 20
642.0
 30
0.0
  0
POINT
  5
D0EC
330
B982
100
AcDbEntity
  8
DEFPOINTS
 62
     0
100
AcDbPoint
 10
0.0000600000001327
 20
604.9999999999998
 30
0.0
  0
POINT
  5
D0ED
330
B982
100
AcDbEntity
  8
DEFPOINTS
 62
     0
100
AcDbPoint
 10
0.0000600000001356
 20
652.095875
 30
0.0
  0
ENDBLK
  5
B98D
330
B982
100
AcDbEntity
  8
0
100
AcDbBlockEnd
  0
BLOCK
  5
B998
330
B98E
100
AcDbEntity
  8
0
100
AcDbBlockBegin
  2
*D33
 70
     1
 10
0.0
 20
0.0
 30
0.0
  3
*D33
  1

  0
LINE
  5
D0DC
330
B98E
100
AcDbEntity
  8
30
 62
     0
370
    -2
100
AcDbLine
 10
-92.49993999999986
 20
622.9999999999997
 30
0.0
 11
-92.49993999999986
 21
630.0958749999997
 31
0.0
  0
LINE
  5
D0DD
330
B98E
100
AcDbEntity
  8
30
 62
     0
370
    -2
100
AcDbLine
 10
-47.49993999999984
 20
622.9999999999997
 30
0.0
 11
-47.49993999999984
 21
630.0958749999997
 31
0.0
  0
LINE
  5
D0DE
330
B98E
100
AcDbEntity
  8
30
 62
     0
370
    -2
100
AcDbLine
 10
-90.49993999999987
 20
629.5958749999997
 30
0.0
 11
-49.49993999999986
 21
629.5958749999997
 31
0.0
  0
INSERT
  5
D0DF
330
B98E
100
AcDbEntity
  8
30
 62
     0
370
    -2
100
AcDbBlockReference
  2
_OPEN
 10
-92.49993999999986
 20
629.5958749999997
 30
0.0
 41
2.0
 42
2.0
 43
2.0
 50
180.0
  0
INSERT
  5
D0E0
330
B98E
100
AcDbEntity
  8
30
 62
     0
370
    -2
100
AcDbBlockReference
  2
_OPEN
 10
-47.49993999999984
 20
629.5958749999997
 30
0.0
 41
2.0
 42
2.0
 43
2.0
  0
MTEXT
  5
D0E1
330
B98E
100
AcDbEntity
  8
30
 62
     0
100
AcDbMText
 10
-69.99993999999985
 20
635.5958749999999
 30
0.0
 40
6.0
 41
0.0
 71
     5
 72
     1
  1
\A1; 45 
 73
     1
 44
1.0
  0
POINT
  5
D0E2
330
B98E
100
AcDbEntity
  8
DEFPOINTS
 62
     0
100
AcDbPoint
 10
-92.49993999999986
 20
619.9999999999997
 30
0.0
  0
POINT
  5
D0E3
330
B98E
100
AcDbEntity
  8
DEFPOINTS
 62
     0
100
AcDbPoint
 10
-47.49993999999984
 20
619.9999999999997
 30
0.0
  0
POINT
  5
D0E4
330
B98E
100
AcDbEntity
  8
DEFPOINTS
 62
     0
100
AcDbPoint
 10
-47.49993999999984
 20
629.5958749999997
 30
0.0
  0
ENDBLK
  5
B999
330
B98E
100
AcDbEntity
  8
0
100
AcDbBlockEnd
  0
BLOCK
  5
B9A3
330
B99A
100
AcDbEntity
  8
0
100
AcDbBlockBegin
  2
*D34
 70
     1
 10
0.0
 20
0.0
 30
0.0
  3
*D34
  1

  0
LINE
  5
D0EE
330
B99A
100
AcDbEntity
  8
30
 62
     0
370
    -2
100
AcDbLine
 10
135.8823827892571
 20
598.1959077673153
 30
0.0
 11
144.1274422107443
 21
601.8040922326837
 31
0.0
  0
LINE
  5
D0EF
330
B99A
100
AcDbEntity
  8
30
 62
     0
370
    -2
100
AcDbLine
 10
145.9596776377415
 20
602.6059110027659
 30
0.0
 11
165.0050325000012
 21
610.9404966059152
 31
0.0
  0
LINE
  5
D0F0
330
B99A
100
AcDbEntity
  8
30
 62
     0
370
    -2
100
AcDbLine
 10
165.0050325000012
 20
610.9404966059152
 30
0.0
 11
182.0050325000011
 21
610.9404966059152
 31
0.0
  0
INSERT
  5
D0F1
330
B99A
100
AcDbEntity
  8
30
 62
     0
370
    -2
100
AcDbBlockReference
  2
_OPEN
 10
134.0501473622597
 20
597.3940889972332
 30
0.0
 41
2.0
 42
2.0
 43
2.0
 50
203.6350408447741
  0
INSERT
  5
D0F2
330
B99A
100
AcDbEntity
  8
30
 62
     0
370
    -2
100
AcDbBlockReference
  2
_OPEN
 10
145.9596776377415
 20
602.6059110027659
 30
0.0
 41
2.0
 42
2.0
 43
2.0
 50
23.63504084477412
  0
MTEXT
  5
D0F3
330
B99A
100
AcDbEntity
  8
30
 62
     0
100
AcDbMText
 10
175.0050325000009
 20
616.9404966059151
 30
0.0
 40
6.0
 41
0.0
 71
     5
 72
     1
  1
\A1;\U+220513
 73
     1
 44
1.0
  0
POINT
  5
D0F4
330
B99A
100
AcDbEntity
  8
DEFPOINTS
 62
     0
100
AcDbPoint
 10
145.9596776377415
 20
602.6059110027659
 30
0.0
  0
POINT
  5
D0F5
330
B99A
100
AcDbEntity
  8
DEFPOINTS
 62
     0
100
AcDbPoint
 10
134.0501473622597
 20
597.3940889972332
 30
0.0
  0
ENDBLK
  5
B9A4
330
B99A
100
AcDbEntity
  8
0
100
AcDbBlockEnd
  0
BLOCK
  5
B9BA
330
B9B0
100
AcDbEntity
  8
0
100
AcDbBlockBegin
  2
*D35
 70
     1
 10
0.0
 20
0.0
 30
0.0
  3
*D35
  1

  0
LINE
  5
D133
330
B9B0
100
AcDbEntity
  8
30
 62
     0
370
    -2
100
AcDbLine
 10
70.0
 20
607.9999999999998
 30
0.0
 11
70.0
 21
652.595875
 31
0.0
  0
LINE
  5
D134
330
B9B0
100
AcDbEntity
  8
30
 62
     0
370
    -2
100
AcDbLine
 10
140.0
 20
607.9999999999998
 30
0.0
 11
140.0
 21
652.595875
 31
0.0
  0
LINE
  5
D135
330
B9B0
100
AcDbEntity
  8
30
 62
     0
370
    -2
100
AcDbLine
 10
72.0
 20
652.095875
 30
0.0
 11
138.0
 21
652.095875
 31
0.0
  0
INSERT
  5
D136
330
B9B0
100
AcDbEntity
  8
30
 62
     0
370
    -2
100
AcDbBlockReference
  2
_OPEN
 10
70.0
 20
652.095875
 30
0.0
 41
2.0
 42
2.0
 43
2.0
 50
180.0
  0
INSERT
  5
D137
330
B9B0
100
AcDbEntity
  8
30
 62
     0
370
    -2
100
AcDbBlockReference
  2
_OPEN
 10
140.0
 20
652.095875
 30
0.0
 41
2.0
 42
2.0
 43
2.0
  0
MTEXT
  5
D138
330
B9B0
100
AcDbEntity
  8
30
 62
     0
100
AcDbMText
 10
105.0
 20
658.0958749999997
 30
0.0
 40
6.0
 41
0.0
 71
     5
 72
     1
  1
\A1; 70 
 73
     1
 44
1.0
  0
POINT
  5
D139
330
B9B0
100
AcDbEntity
  8
DEFPOINTS
 62
     0
100
AcDbPoint
 10
70.0
 20
604.9999999999998
 30
0.0
  0
POINT
  5
D13A
330
B9B0
100
AcDbEntity
  8
DEFPOINTS
 62
     0
100
AcDbPoint
 10
140.0
 20
604.9999999999998
 30
0.0
  0
POINT
  5
D13B
330
B9B0
100
AcDbEntity
  8
DEFPOINTS
 62
     0
100
AcDbPoint
 10
140.0
 20
652.095875
 30
0.0
  0
ENDBLK
  5
B9BB
330
B9B0
100
AcDbEntity
  8
0
100
AcDbBlockEnd
  0
BLOCK
  5
B9D2
330
B9C8
100
AcDbEntity
  8
0
100
AcDbBlockBegin
  2
*D36
 70
     1
 10
0.0
 20
0.0
 30
0.0
  3
*D36
  1

  0
LINE
  5
D0F6
330
B9C8
100
AcDbEntity
  8
30
 62
     0
370
    -2
100
AcDbLine
 10
133.5049124999999
 20
562.0
 30
0.0
 11
133.5049124999999
 21
578.0
 31
0.0
  0
LINE
  5
D0F7
330
B9C8
100
AcDbEntity
  8
30
 62
     0
370
    -2
100
AcDbLine
 10
146.5049124999999
 20
562.0
 30
0.0
 11
146.5049124999999
 21
578.0
 31
0.0
  0
LINE
  5
D0F8
330
B9C8
100
AcDbEntity
  8
30
 62
     0
370
    -2
100
AcDbLine
 10
135.5049124999997
 20
577.5
 30
0.0
 11
144.5049124999999
 21
577.5
 31
0.0
  0
INSERT
  5
D0F9
330
B9C8
100
AcDbEntity
  8
30
 62
     0
370
    -2
100
AcDbBlockReference
  2
_OPEN
 10
133.5049124999999
 20
577.5
 30
0.0
 41
2.0
 42
2.0
 43
2.0
 50
180.0
  0
INSERT
  5
D0FA
330
B9C8
100
AcDbEntity
  8
30
 62
     0
370
    -2
100
AcDbBlockReference
  2
_OPEN
 10
146.5049124999999
 20
577.5
 30
0.0
 41
2.0
 42
2.0
 43
2.0
  0
MTEXT
  5
D0FB
330
B9C8
100
AcDbEntity
  8
30
 62
     0
100
AcDbMText
 10
140.0049124999999
 20
583.4999999999999
 30
0.0
 40
6.0
 41
0.0
 71
     5
 72
     1
  1
\A1;13 
 73
     1
 44
1.0
  0
POINT
  5
D0FC
330
B9C8
100
AcDbEntity
  8
DEFPOINTS
 62
     0
100
AcDbPoint
 10
133.5049124999999
 20
559.0
 30
0.0
  0
POINT
  5
D0FD
330
B9C8
100
AcDbEntity
  8
DEFPOINTS
 62
     0
100
AcDbPoint
 10
146.5049124999999
 20
559.0
 30
0.0
  0
POINT
  5
D0FE
330
B9C8
100
AcDbEntity
  8
DEFPOINTS
 62
     0
100
AcDbPoint
 10
146.5049124999999
 20
577.5
 30
0.0
  0
ENDBLK
  5
B9D3
330
B9C8
100
AcDbEntity
  8
0
100
AcDbBlockEnd
  0
BLOCK
  5
BA62
330
BA58
100
AcDbEntity
  8
0
100
AcDbBlockBegin
  2
*D37
 70
     1
 10
0.0
 20
0.0
 30
0.0
  3
*D37
  1

  0
LINE
  5
D04C
330
BA58
100
AcDbEntity
  8
30
  6
Continuous
 62
     0
370
    -2
100
AcDbLine
 10
580.0
 20
-173.0000000000009
 30
0.0
 11
580.0
 21
-239.8322434222734
 31
0.0
  0
LINE
  5
D04D
330
BA58
100
AcDbEntity
  8
30
  6
Continuous
 62
     0
370
    -2
100
AcDbLine
 10
598.0
 20
-172.0000000000009
 30
0.0
 11
598.0
 21
-239.8322434222734
 31
0.0
  0
LINE
  5
D04E
330
BA58
100
AcDbEntity
  8
30
  6
Continuous
 62
     0
370
    -2
100
AcDbLine
 10
582.0
 20
-239.3322434222735
 30
0.0
 11
596.0
 21
-239.3322434222735
 31
0.0
  0
INSERT
  5
D04F
330
BA58
100
AcDbEntity
  8
30
  6
Continuous
 62
     0
370
    -2
100
AcDbBlockReference
  2
_OPEN
 10
580.0
 20
-239.3322434222735
 30
0.0
 41
2.0
 42
2.0
 43
2.0
 50
180.0
  0
INSERT
  5
D050
330
BA58
100
AcDbEntity
  8
30
  6
Continuous
 62
     0
370
    -2
100
AcDbBlockReference
  2
_OPEN
 10
598.0
 20
-239.3322434222735
 30
0.0
 41
2.0
 42
2.0
 43
2.0
  0
MTEXT
  5
D051
330
BA58
100
AcDbEntity
  8
30
  6
Continuous
 62
     0
100
AcDbMText
 10
589.0
 20
-233.3322434222734
 30
0.0
 40
6.0
 41
0.0
 71
     5
 72
     1
  1
\A1;18
 73
     1
 44
1.0
  0
POINT
  5
D052
330
BA58
100
AcDbEntity
  8
DEFPOINTS
  6
Continuous
 62
     0
100
AcDbPoint
 10
580.0
 20
-170.0000000000009
 30
0.0
  0
POINT
  5
D053
330
BA58
100
AcDbEntity
  8
DEFPOINTS
  6
Continuous
 62
     0
100
AcDbPoint
 10
598.0
 20
-169.0000000000009
 30
0.0
  0
POINT
  5
D054
330
BA58
100
AcDbEntity
  8
DEFPOINTS
  6
Continuous
 62
     0
100
AcDbPoint
 10
598.0
 20
-239.3322434222735
 30
0.0
  0
ENDBLK
  5
BA63
330
BA58
100
AcDbEntity
  8
0
100
AcDbBlockEnd
  0
BLOCK
  5
BB59
330
BB4F
100
AcDbEntity
  8
0
100
AcDbBlockBegin
  2
*D38
 70
     1
 10
0.0
 20
0.0
 30
0.0
  3
*D38
  1

  0
LINE
  5
D018
330
BB4F
100
AcDbEntity
  8
30
  6
Continuous
 62
     0
370
    -2
100
AcDbLine
 10
363.5
 20
-548.9999999999996
 30
0.0
 11
363.5
 21
-710.5
 31
0.0
  0
LINE
  5
D019
330
BB4F
100
AcDbEntity
  8
30
  6
Continuous
 62
     0
370
    -2
100
AcDbLine
 10
556.5
 20
-548.9999999999992
 30
0.0
 11
556.5
 21
-710.5
 31
0.0
  0
LINE
  5
D01A
330
BB4F
100
AcDbEntity
  8
30
  6
Continuous
 62
     0
370
    -2
100
AcDbLine
 10
365.5
 20
-710.0
 30
0.0
 11
554.4999999999999
 21
-710.0
 31
0.0
  0
INSERT
  5
D01B
330
BB4F
100
AcDbEntity
  8
30
  6
Continuous
 62
     0
370
    -2
100
AcDbBlockReference
  2
_OPEN
 10
363.5
 20
-710.0
 30
0.0
 41
2.0
 42
2.0
 43
2.0
 50
180.0
  0
INSERT
  5
D01C
330
BB4F
100
AcDbEntity
  8
30
  6
Continuous
 62
     0
370
    -2
100
AcDbBlockReference
  2
_OPEN
 10
556.5
 20
-710.0
 30
0.0
 41
2.0
 42
2.0
 43
2.0
  0
MTEXT
  5
D01D
330
BB4F
100
AcDbEntity
  8
30
  6
Continuous
 62
     0
100
AcDbMText
 10
460.0
 20
-704.0
 30
0.0
 40
6.0
 41
0.0
 71
     5
 72
     1
  1
\A1; 193 
 73
     1
 44
1.0
  0
POINT
  5
D01E
330
BB4F
100
AcDbEntity
  8
DEFPOINTS
  6
Continuous
 62
     0
100
AcDbPoint
 10
363.5
 20
-545.9999999999999
 30
0.0
  0
POINT
  5
D01F
330
BB4F
100
AcDbEntity
  8
DEFPOINTS
  6
Continuous
 62
     0
100
AcDbPoint
 10
556.5
 20
-545.9999999999991
 30
0.0
  0
POINT
  5
D020
330
BB4F
100
AcDbEntity
  8
DEFPOINTS
  6
Continuous
 62
     0
100
AcDbPoint
 10
556.5
 20
-710.0
 30
0.0
  0
ENDBLK
  5
BB5A
330
BB4F
100
AcDbEntity
  8
0
100
AcDbBlockEnd
  0
BLOCK
  5
BB94
330
BB8A
100
AcDbEntity
  8
0
100
AcDbBlockBegin
  2
*D39
 70
     1
 10
0.0
 20
0.0
 30
0.0
  3
*D39
  1

  0
LINE
  5
D032
330
BB8A
100
AcDbEntity
  8
30
  6
Continuous
 62
     0
370
    -2
100
AcDbLine
 10
360.4999999999998
 20
-450.9999999999991
 30
0.0
 11
334.5
 21
-450.9999999999991
 31
0.0
  0
LINE
  5
D033
330
BB8A
100
AcDbEntity
  8
30
  6
Continuous
 62
     0
370
    -2
100
AcDbLine
 10
360.4999999999998
 20
-548.9999999999996
 30
0.0
 11
334.5
 21
-548.9999999999996
 31
0.0
  0
LINE
  5
D034
330
BB8A
100
AcDbEntity
  8
30
  6
Continuous
 62
     0
370
    -2
100
AcDbLine
 10
335.0
 20
-452.9999999999991
 30
0.0
 11
335.0
 21
-546.9999999999997
 31
0.0
  0
INSERT
  5
D035
330
BB8A
100
AcDbEntity
  8
30
  6
Continuous
 62
     0
370
    -2
100
AcDbBlockReference
  2
_OPEN
 10
335.0
 20
-450.9999999999991
 30
0.0
 41
2.0
 42
2.0
 43
2.0
 50
90.0
  0
INSERT
  5
D036
330
BB8A
100
AcDbEntity
  8
30
  6
Continuous
 62
     0
370
    -2
100
AcDbBlockReference
  2
_OPEN
 10
335.0
 20
-548.9999999999996
 30
0.0
 41
2.0
 42
2.0
 43
2.0
 50
270.0
  0
MTEXT
  5
D037
330
BB8A
100
AcDbEntity
  8
30
  6
Continuous
 62
     0
100
AcDbMText
 10
329.0
 20
-499.9999999999992
 30
0.0
 40
6.0
 41
0.0
 71
     5
 72
     1
  1
\A1;98
 11
0.0000000000000001
 21
1.0
 31
0.0
 73
     1
 44
1.0
  0
POINT
  5
D038
330
BB8A
100
AcDbEntity
  8
DEFPOINTS
  6
Continuous
 62
     0
100
AcDbPoint
 10
363.5
 20
-450.9999999999991
 30
0.0
  0
POINT
  5
D039
330
BB8A
100
AcDbEntity
  8
DEFPOINTS
  6
Continuous
 62
     0
100
AcDbPoint
 10
363.5
 20
-548.9999999999996
 30
0.0
  0
POINT
  5
D03A
330
BB8A
100
AcDbEntity
  8
DEFPOINTS
  6
Continuous
 62
     0
100
AcDbPoint
 10
335.0
 20
-548.9999999999996
 30
0.0
  0
ENDBLK
  5
BB95
330
BB8A
100
AcDbEntity
  8
0
100
AcDbBlockEnd
  0
BLOCK
  5
BBAC
330
BBA2
100
AcDbEntity
  8
0
100
AcDbBlockBegin
  2
*D40
 70
     1
 10
0.0
 20
0.0
 30
0.0
  3
*D40
  1

  0
LINE
  5
D00F
330
BBA2
100
AcDbEntity
  8
30
  6
Continuous
 62
     0
370
    -2
100
AcDbLine
 10
419.5
 20
-554.0
 30
0.0
 11
419.5
 21
-692.5958749999997
 31
0.0
  0
LINE
  5
D010
330
BBA2
100
AcDbEntity
  8
30
  6
Continuous
 62
     0
370
    -2
100
AcDbLine
 10
500.4999999999998
 20
-554.0
 30
0.0
 11
500.4999999999998
 21
-692.5958749999997
 31
0.0
  0
LINE
  5
D011
330
BBA2
100
AcDbEntity
  8
30
  6
Continuous
 62
     0
370
    -2
100
AcDbLine
 10
421.4999999999998
 20
-692.0958749999997
 30
0.0
 11
498.4999999999997
 21
-692.0958749999997
 31
0.0
  0
INSERT
  5
D012
330
BBA2
100
AcDbEntity
  8
30
  6
Continuous
 62
     0
370
    -2
100
AcDbBlockReference
  2
_OPEN
 10
419.5
 20
-692.0958749999997
 30
0.0
 41
2.0
 42
2.0
 43
2.0
 50
180.0
  0
INSERT
  5
D013
330
BBA2
100
AcDbEntity
  8
30
  6
Continuous
 62
     0
370
    -2
100
AcDbBlockReference
  2
_OPEN
 10
500.4999999999998
 20
-692.0958749999997
 30
0.0
 41
2.0
 42
2.0
 43
2.0
  0
MTEXT
  5
D014
330
BBA2
100
AcDbEntity
  8
30
  6
Continuous
 62
     0
100
AcDbMText
 10
459.9999999999998
 20
-686.0958749999999
 30
0.0
 40
6.0
 41
0.0
 71
     5
 72
     1
  1
\A1; 81 
 73
     1
 44
1.0
  0
POINT
  5
D015
330
BBA2
100
AcDbEntity
  8
DEFPOINTS
  6
Continuous
 62
     0
100
AcDbPoint
 10
419.5
 20
-551.0
 30
0.0
  0
POINT
  5
D016
330
BBA2
100
AcDbEntity
  8
DEFPOINTS
  6
Continuous
 62
     0
100
AcDbPoint
 10
500.4999999999998
 20
-551.0
 30
0.0
  0
POINT
  5
D017
330
BBA2
100
AcDbEntity
  8
DEFPOINTS
  6
Continuous
 62
     0
100
AcDbPoint
 10
500.4999999999998
 20
-692.0958749999997
 30
0.0
  0
ENDBLK
  5
BBAD
330
BBA2
100
AcDbEntity
  8
0
100
AcDbBlockEnd
  0
BLOCK
  5
BBC2
330
BBB9
100
AcDbEntity
  8
0
100
AcDbBlockBegin
  2
*D41
 70
     1
 10
0.0
 20
0.0
 30
0.0
  3
*D41
  1

  0
LINE
  5
D02A
330
BBB9
100
AcDbEntity
  8
30
  6
Continuous
 62
     0
370
    -2
100
AcDbLine
 10
365.4999257061643
 20
-449.0835210994352
 30
0.0
 11
363.9968486915055
 21
-440.9634736719374
 31
0.0
  0
LINE
  5
D02B
330
BBB9
100
AcDbEntity
  8
30
  6
Continuous
 62
     0
370
    -2
100
AcDbLine
 10
363.9968486915055
 20
-440.9634736719374
 30
0.0
 11
376.9968486915056
 21
-440.9634736719374
 31
0.0
  0
INSERT
  5
D02C
330
BBB9
100
AcDbEntity
  8
30
  6
Continuous
 62
     0
370
    -2
100
AcDbBlockReference
  2
_OPEN
 10
365.8639554236986
 20
-451.0501126596611
 30
0.0
 41
2.0
 42
2.0
 43
2.0
 50
280.4871416770018
  0
MTEXT
  5
D02D
330
BBB9
100
AcDbEntity
  8
30
  6
Continuous
 62
     0
100
AcDbMText
 10
371.9968486915056
 20
-434.9634736719375
 30
0.0
 40
6.0
 41
0.0
 71
     5
 72
     1
  1
\A1;R3
 73
     1
 44
1.0
  0
LINE
  5
D02E
330
BBB9
100
AcDbEntity
  8
30
  6
Continuous
 62
     0
370
    -2
100
AcDbLine
 10
366.3200000000001
 20
-454.0
 30
0.0
 11
366.5000000000001
 21
-454.0
 31
0.0
  0
LINE
  5
D02F
330
BBB9
100
AcDbEntity
  8
30
  6
Continuous
 62
     0
370
    -2
100
AcDbLine
 10
366.4100000000001
 20
-454.0899999999998
 30
0.0
 11
366.4100000000001
 21
-453.91
 31
0.0
  0
POINT
  5
D030
330
BBB9
100
AcDbEntity
  8
DEFPOINTS
  6
Continuous
 62
     0
100
AcDbPoint
 10
365.8639554236986
 20
-451.0501126596611
 30
0.0
  0
POINT
  5
D031
330
BBB9
100
AcDbEntity
  8
DEFPOINTS
  6
Continuous
 62
     0
100
AcDbPoint
 10
366.4100000000001
 20
-453.9999999999998
 30
0.0
  0
ENDBLK
  5
BBC3
330
BBB9
100
AcDbEntity
  8
0
100
AcDbBlockEnd
  0
BLOCK
  5
BBCD
330
BBC4
100
AcDbEntity
  8
0
100
AcDbBlockBegin
  2
*D42
 70
     1
 10
0.0
 20
0.0
 30
0.0
  3
*D42
  1

  0
LINE
  5
D03B
330
BBC4
100
AcDbEntity
  8
30
  6
Continuous
 62
     0
370
    -2
100
AcDbLine
 10
421.5899257061654
 20
-449.0835210994356
 30
0.0
 11
420.0868486915068
 21
-440.9634736719373
 31
0.0
  0
LINE
  5
D03C
330
BBC4
100
AcDbEntity
  8
30
  6
Continuous
 62
     0
370
    -2
100
AcDbLine
 10
420.0868486915068
 20
-440.9634736719373
 30
0.0
 11
433.0868486915066
 21
-440.9634736719374
 31
0.0
  0
INSERT
  5
D03D
330
BBC4
100
AcDbEntity
  8
30
  6
Continuous
 62
     0
370
    -2
100
AcDbBlockReference
  2
_OPEN
 10
421.9539554236998
 20
-451.0501126596614
 30
0.0
 41
2.0
 42
2.0
 43
2.0
 50
280.4871416770009
  0
MTEXT
  5
D03E
330
BBC4
100
AcDbEntity
  8
30
  6
Continuous
 62
     0
100
AcDbMText
 10
428.0868486915068
 20
-434.9634736719373
 30
0.0
 40
6.0
 41
0.0
 71
     5
 72
     1
  1
\A1;R3
 73
     1
 44
1.0
  0
LINE
  5
D03F
330
BBC4
100
AcDbEntity
  8
30
  6
Continuous
 62
     0
370
    -2
100
AcDbLine
 10
422.4100000000014
 20
-454.0000000000005
 30
0.0
 11
422.5900000000012
 21
-454.0000000000005
 31
0.0
  0
LINE
  5
D040
330
BBC4
100
AcDbEntity
  8
30
  6
Continuous
 62
     0
370
    -2
100
AcDbLine
 10
422.5000000000012
 20
-454.0900000000005
 30
0.0
 11
422.5000000000012
 21
-453.9100000000005
 31
0.0
  0
POINT
  5
D041
330
BBC4
100
AcDbEntity
  8
DEFPOINTS
  6
Continuous
 62
     0
100
AcDbPoint
 10
421.9539554236998
 20
-451.0501126596614
 30
0.0
  0
POINT
  5
D042
330
BBC4
100
AcDbEntity
  8
DEFPOINTS
  6
Continuous
 62
     0
100
AcDbPoint
 10
422.5000000000012
 20
-454.0000000000006
 30
0.0
  0
ENDBLK
  5
BBCE
330
BBC4
100
AcDbEntity
  8
0
100
AcDbBlockEnd
  0
ENDSEC
  0
SECTION
  2
ENTITIES
  0
MTEXT
  5
BF3
330
1E
100
AcDbEntity
  8
24
  6
Continuous
100
AcDbMText
 10
-1330.881809390125
 20
176.5
 30
0.0
 40
3.0
 41
0.0
 71
     1
 72
     1
  1
\A1;
 73
     1
 44
1.0
  0
MTEXT
  5
7B0D
330
1E
100
AcDbEntity
  8
30
  6
Continuous
100
AcDbMText
 10
-1137.0
 20
246.4999999999999
 30
0.0
 40
5.0
 41
0.0
 71
     1
 72
     1
  1
\A1;
 73
     1
 44
1.0
  0
MTEXT
  5
8780
330
1E
100
AcDbEntity
  8
30
  6
Continuous
100
AcDbMText
 10
-1137.0
 20
270.0
 30
0.0
 40
5.0
 41
0.0
 71
     1
 72
     1
  1
\A1;
 73
     1
 44
1.0
  0
MTEXT
  5
89B2
330
1E
100
AcDbEntity
  8
30
  6
Continuous
100
AcDbMText
 10
-1144.0
 20
278.4999999999999
 30
0.0
 40
5.0
 41
0.0
 71
     1
 72
     1
  1
\A1;
 73
     1
 44
1.0
  0
LINE
  5
A432
330
1E
100
AcDbEntity
  8
16
100
AcDbLine
 10
330.252445
 20
-0.0000000000009095
 30
0.0
 11
685.9072299999998
 21
-0.0000000000009095
 31
0.0
  0
LINE
  5
A620
330
1E
100
AcDbEntity
  8
16
100
AcDbLine
 10
0.0
 20
-85.49999999999981
 30
0.0
 11
0.0
 21
74.50000000000017
 31
0.0
  0
DIMENSION
  5
A624
330
1E
100
AcDbEntity
  8
30
  6
Continuous
100
AcDbDimension
  2
*D2
 10
-158.9538999999998
 20
200.0
 30
0.0
 11
-164.9539
 21
15.0
 31
0.0
 70
    32
  1
 <> 
 71
     0
 72
     0
 41
0.0
 42
370.0
  3
STANDARD1
100
AcDbAlignedDimension
 13
-110.0
 23
-169.9999999999999
 33
0.0
 14
-110.0
 24
200.0
 34
0.0
 50
90.0
100
AcDbRotatedDimension
  0
DIMENSION
  5
A625
330
1E
100
AcDbEntity
  8
30
  6
Continuous
100
AcDbDimension
  2
*D3
 10
-139.4538999999996
 20
199.9999999999999
 30
0.0
 11
-145.4539
 21
100.0
 31
0.0
 70
    32
  1
 <> 
 71
     0
 72
     0
 41
0.0
 42
199.9999999999999
  3
STANDARD1
100
AcDbAlignedDimension
 13
-165.0
 23
0.0000000000000568
 33
0.0
 14
-105.0
 24
199.9999999999999
 34
0.0
 50
90.0
100
AcDbRotatedDimension
  0
LINE
  5
A626
330
1E
100
AcDbEntity
  8
16
100
AcDbLine
 10
216.0
 20
0.0
 30
0.0
 11
-134.0
 21
0.0
 31
0.0
  0
DIMENSION
  5
A627
330
1E
100
AcDbEntity
  8
30
  6
Continuous
100
AcDbDimension
  2
*D4
 10
-139.4538999999996
 20
0.0000000000000561
 30
0.0
 11
-145.4538999999996
 21
-84.99999999999996
 31
0.0
 70
    32
  1
 <> 
 71
     0
 72
     0
 41
0.0
 42
170.0
  3
STANDARD1
100
AcDbAlignedDimension
 13
-110.0
 23
-169.9999999999999
 33
0.0
 14
-142.0
 24
0.0000000000000568
 34
0.0
 50
90.0
100
AcDbRotatedDimension
  0
DIMENSION
  5
A62A
330
1E
100
AcDbEntity
  8
30
  6
Continuous
100
AcDbDimension
  2
*D7
 10
175.0
 20
-221.4999999999999
 30
0.0
 11
35.0
 21
-215.5
 31
0.0
 70
    32
  1
 <> 
 71
     5
 42
280.0
  3
STANDARD1
100
AcDbAlignedDimension
 13
-105.0
 23
-174.9999999999999
 33
0.0
 14
175.0
 24
-174.9999999999999
 34
0.0
100
AcDbRotatedDimension
  0
DIMENSION
  5
A62B
330
1E
100
AcDbEntity
  8
30
  6
Continuous
100
AcDbDimension
  2
*D8
 10
-0.0000000000000017
 20
-201.0
 30
0.0
 11
-52.5
 21
-195.0
 31
0.0
 70
    32
  1
 <> 
 71
     5
 42
105.0
  3
STANDARD1
100
AcDbAlignedDimension
 13
-105.0
 23
-174.9999999999999
 33
0.0
 14
0.0
 24
-172.9999999999999
 34
0.0
100
AcDbRotatedDimension
  0
DIMENSION
  5
A62C
330
1E
100
AcDbEntity
  8
30
  6
Continuous
100
AcDbDimension
  2
*D9
 10
175.0
 20
-201.0
 30
0.0
 11
87.5
 21
-195.0
 31
0.0
 70
    32
  1
 <> 
 71
     5
 42
175.0
  3
STANDARD1
100
AcDbAlignedDimension
 13
0.0
 23
-140.0
 33
0.0
 14
175.0
 24
-169.9999999999999
 34
0.0
100
AcDbRotatedDimension
  0
LINE
  5
A63B
330
1E
100
AcDbEntity
  8
10
  6
Continuous
100
AcDbLine
 10
-105.0
 20
-140.0
 30
0.0
 11
175.0
 21
-140.0
 31
0.0
  0
LINE
  5
A63C
330
1E
100
AcDbEntity
  8
10
  6
Continuous
100
AcDbLine
 10
22.49999999999977
 20
43.33292999999996
 30
0.0
 11
-22.5
 21
43.33292999999996
 31
0.0
  0
LINE
  5
A63D
330
1E
100
AcDbEntity
  8
10
  6
Continuous
100
AcDbLine
 10
94.0
 20
47.50000000000006
 30
0.0
 11
-94.0
 21
47.50000000000006
 31
0.0
  0
LINE
  5
A63F
330
1E
100
AcDbEntity
  8
10
  6
Continuous
100
AcDbLine
 10
22.49999999999977
 20
-22.99999999999982
 30
0.0
 11
-22.5
 21
-22.99999999999982
 31
0.0
  0
LINE
  5
A640
330
1E
100
AcDbEntity
  8
10
  6
Continuous
100
AcDbLine
 10
94.0
 20
-47.5
 30
0.0
 11
-94.0
 21
-47.5
 31
0.0
  0
LINE
  5
A641
330
1E
100
AcDbEntity
  8
10
  6
Continuous
100
AcDbLine
 10
22.49999999999977
 20
31.93223500000016
 30
0.0
 11
-22.5
 21
31.93223500000016
 31
0.0
  0
CIRCLE
  5
A644
330
1E
100
AcDbEntity
  8
17
100
AcDbCircle
 10
-34.79999999999995
 20
-155.0
 30
0.0
 40
8.5
  0
LINE
  5
A645
330
1E
100
AcDbEntity
  8
17
100
AcDbLine
 10
-48.30000000000018
 20
-155.0
 30
0.0
 11
-21.29999999999995
 21
-155.0
 31
0.0
  0
LINE
  5
A646
330
1E
100
AcDbEntity
  8
17
100
AcDbLine
 10
-34.79999999999995
 20
-168.4999999999999
 30
0.0
 11
-34.79999999999995
 21
-141.5
 31
0.0
  0
LINE
  5
A647
330
1E
100
AcDbEntity
  8
10
  6
Continuous
100
AcDbLine
 10
-95.0
 20
-46.50000000000003
 30
0.0
 11
-95.0
 21
46.50000000000003
 31
0.0
  0
ARC
  5
A649
330
1E
100
AcDbEntity
  8
10
  6
Continuous
100
AcDbCircle
 10
-94.0
 20
-46.50000000000003
 30
0.0
 40
1.0
100
AcDbArc
 50
180.0
 51
270.0
  0
ARC
  5
A64A
330
1E
100
AcDbEntity
  8
10
  6
Continuous
100
AcDbCircle
 10
-94.0
 20
46.50000000000003
 30
0.0
 40
1.0
100
AcDbArc
 50
90.0
 51
180.0
  0
LINE
  5
A64B
330
1E
100
AcDbEntity
  8
10
  6
Continuous
100
AcDbLine
 10
-22.5
 20
-22.99999999999982
 30
0.0
 11
-22.5
 21
43.33292999999996
 31
0.0
  0
LINE
  5
A64E
330
1E
100
AcDbEntity
  8
17
100
AcDbLine
 10
21.69999999999981
 20
-155.0
 30
0.0
 11
48.69999999999982
 21
-155.0
 31
0.0
  0
CIRCLE
  5
A64F
330
1E
100
AcDbEntity
  8
17
100
AcDbCircle
 10
35.20000000000004
 20
-155.0
 30
0.0
 40
8.5
  0
LINE
  5
A650
330
1E
100
AcDbEntity
  8
17
100
AcDbLine
 10
35.20000000000004
 20
-168.4999999999999
 30
0.0
 11
35.20000000000004
 21
-141.5
 31
0.0
  0
LINE
  5
A651
330
1E
100
AcDbEntity
  8
10
  6
Continuous
100
AcDbLine
 10
94.99999999999976
 20
-46.50000000000003
 30
0.0
 11
94.99999999999976
 21
46.50000000000003
 31
0.0
  0
LINE
  5
A652
330
1E
100
AcDbEntity
  8
10
  6
Continuous
100
AcDbLine
 10
22.49999999999977
 20
-22.99999999999982
 30
0.0
 11
22.49999999999977
 21
43.33292999999996
 31
0.0
  0
ARC
  5
A658
330
1E
100
AcDbEntity
  8
10
  6
Continuous
100
AcDbCircle
 10
94.0
 20
-46.50000000000003
 30
0.0
 40
1.0
100
AcDbArc
 50
270.0
 51
0.0
  0
ARC
  5
A659
330
1E
100
AcDbEntity
  8
10
  6
Continuous
100
AcDbCircle
 10
94.0
 20
46.50000000000003
 30
0.0
 40
1.0
100
AcDbArc
 50
0.0
 51
90.0
  0
LINE
  5
A66F
330
1E
100
AcDbEntity
  8
10
  6
Continuous
100
AcDbLine
 10
175.0
 20
170.0
 30
0.0
 11
-105.0
 21
170.0
 31
0.0
  0
CIRCLE
  5
A672
330
1E
100
AcDbEntity
  8
17
100
AcDbCircle
 10
-34.79999999999995
 20
185.0
 30
0.0
 40
8.5
  0
LINE
  5
A673
330
1E
100
AcDbEntity
  8
17
100
AcDbLine
 10
-48.30000000000018
 20
185.0
 30
0.0
 11
-21.29999999999995
 21
185.0
 31
0.0
  0
LINE
  5
A674
330
1E
100
AcDbEntity
  8
17
100
AcDbLine
 10
-34.79999999999995
 20
171.5
 30
0.0
 11
-34.79999999999995
 21
198.4999999999999
 31
0.0
  0
CIRCLE
  5
A679
330
1E
100
AcDbEntity
  8
17
100
AcDbCircle
 10
35.20000000000004
 20
185.0
 30
0.0
 40
8.5
  0
LINE
  5
A67A
330
1E
100
AcDbEntity
  8
17
100
AcDbLine
 10
35.20000000000004
 20
171.5
 30
0.0
 11
35.20000000000004
 21
198.4999999999999
 31
0.0
  0
LINE
  5
A67B
330
1E
100
AcDbEntity
  8
17
100
AcDbLine
 10
21.69999999999981
 20
185.0
 30
0.0
 11
48.69999999999982
 21
185.0
 31
0.0
  0
CIRCLE
  5
A67C
330
1E
100
AcDbEntity
  8
10
  6
Continuous
100
AcDbCircle
 10
140.0
 20
130.0
 30
0.0
 40
10.0
  0
LINE
  5
A67D
330
1E
100
AcDbEntity
  8
10
  6
Continuous
100
AcDbLine
 10
135.6249999999999
 20
124.633885
 30
0.0
 11
136.875
 21
125.883885
 31
0.0
  0
LINE
  5
A67E
330
1E
100
AcDbEntity
  8
10
  6
Continuous
100
AcDbLine
 10
139.4134099999998
 20
129.74812
 30
0.0
 11
140.3109499999998
 21
130.6456600000001
 31
0.0
  0
LINE
  5
A67F
330
1E
100
AcDbEntity
  8
10
  6
Continuous
100
AcDbLine
 10
135.6249999999999
 20
133.0307799999999
 30
0.0
 11
137.399335
 21
134.80511
 31
0.0
  0
LINE
  5
A680
330
1E
100
AcDbEntity
  8
10
  6
Continuous
100
AcDbLine
 10
138.6855049999996
 20
130.78798
 30
0.0
 11
139.5830449999998
 21
131.68552
 31
0.0
  0
LINE
  5
A681
330
1E
100
AcDbEntity
  8
10
  6
Continuous
100
AcDbLine
 10
135.6249999999999
 20
133.91466
 30
0.0
 11
137.035385
 21
135.3250400000002
 31
0.0
  0
LINE
  5
A682
330
1E
100
AcDbEntity
  8
10
  6
Continuous
100
AcDbLine
 10
141.4151449999999
 20
126.8884950000003
 30
0.0
 11
142.3126849999998
 21
127.786035
 31
0.0
  0
LINE
  5
A683
330
1E
100
AcDbEntity
  8
10
  6
Continuous
100
AcDbLine
 10
139.95934
 20
128.9682200000001
 30
0.0
 11
140.85688
 21
129.8657600000001
 31
0.0
  0
LINE
  5
A684
330
1E
100
AcDbEntity
  8
10
  6
Continuous
100
AcDbLine
 10
141.9610750000001
 20
126.1086000000003
 30
0.0
 11
142.8586149999998
 21
127.0061399999999
 31
0.0
  0
LINE
  5
A685
330
1E
100
AcDbEntity
  8
10
  6
Continuous
100
AcDbLine
 10
135.6249999999999
 20
128.6113600000001
 30
0.0
 11
136.875
 21
129.8613600000001
 31
0.0
  0
LINE
  5
A686
330
1E
100
AcDbEntity
  8
10
  6
Continuous
100
AcDbLine
 10
139.7773599999995
 20
129.2281849999999
 30
0.0
 11
140.6749049999995
 21
130.12573
 31
0.0
  0
LINE
  5
A687
330
1E
100
AcDbEntity
  8
10
  6
Continuous
100
AcDbLine
 10
142.5069999999998
 20
125.3287
 30
0.0
 11
144.375
 21
127.1967
 31
0.0
  0
LINE
  5
A688
330
1E
100
AcDbEntity
  8
10
  6
Continuous
100
AcDbLine
 10
138.8674799999995
 20
130.5280149999999
 30
0.0
 11
139.765025
 21
131.425555
 31
0.0
  0
LINE
  5
A689
330
1E
100
AcDbEntity
  8
10
  6
Continuous
100
AcDbLine
 10
140.1413149999997
 20
128.7082549999996
 30
0.0
 11
141.0388549999997
 21
129.605795
 31
0.0
  0
LINE
  5
A68A
330
1E
100
AcDbEntity
  8
10
  6
Continuous
100
AcDbLine
 10
143.125
 20
135.6694199999999
 30
0.0
 11
143.7055850000001
 21
136.25
 31
0.0
  0
LINE
  5
A68B
330
1E
100
AcDbEntity
  8
10
  6
Continuous
100
AcDbLine
 10
141.23317
 20
127.1484599999999
 30
0.0
 11
142.1307100000001
 21
128.0460000000002
 31
0.0
  0
LINE
  5
A68C
330
1E
100
AcDbEntity
  8
10
  6
Continuous
100
AcDbLine
 10
135.6249999999999
 20
125.5177700000002
 30
0.0
 11
136.875
 21
126.7677700000002
 31
0.0
  0
LINE
  5
A68D
330
1E
100
AcDbEntity
  8
10
  6
Continuous
100
AcDbLine
 10
135.6249999999999
 20
128.16942
 30
0.0
 11
136.875
 21
129.4194199999999
 31
0.0
  0
LINE
  5
A68E
330
1E
100
AcDbEntity
  8
10
  6
Continuous
100
AcDbLine
 10
135.6249999999999
 20
127.7274749999999
 30
0.0
 11
136.875
 21
128.977475
 31
0.0
  0
LINE
  5
A68F
330
1E
100
AcDbEntity
  8
10
  6
Continuous
100
AcDbLine
 10
143.125
 20
133.4597099999999
 30
0.0
 11
144.375
 21
134.7097099999999
 31
0.0
  0
LINE
  5
A690
330
1E
100
AcDbEntity
  8
10
  6
Continuous
100
AcDbLine
 10
144.0218949999995
 20
123.75
 30
0.0
 11
144.375
 21
124.10311
 31
0.0
  0
LINE
  5
A691
330
1E
100
AcDbEntity
  8
10
  6
Continuous
100
AcDbLine
 10
135.6249999999999
 20
131.7049550000002
 30
0.0
 11
136.875
 21
132.9549550000002
 31
0.0
  0
LINE
  5
A692
330
1E
100
AcDbEntity
  8
10
  6
Continuous
100
AcDbLine
 10
135.6249999999999
 20
129.0533000000002
 30
0.0
 11
136.875
 21
130.3033000000002
 31
0.0
  0
LINE
  5
A693
330
1E
100
AcDbEntity
  8
10
  6
Continuous
100
AcDbLine
 10
139.0494599999996
 20
130.2680500000001
 30
0.0
 11
139.9469999999998
 21
131.1655900000002
 31
0.0
  0
LINE
  5
A694
330
1E
100
AcDbEntity
  8
10
  6
Continuous
100
AcDbLine
 10
142.3250250000001
 20
125.5886650000002
 30
0.0
 11
144.375
 21
127.6386399999998
 31
0.0
  0
LINE
  5
A695
330
1E
100
AcDbEntity
  8
10
  6
Continuous
100
AcDbLine
 10
143.125
 20
132.575825
 30
0.0
 11
144.375
 21
133.825825
 31
0.0
  0
LINE
  5
A696
330
1E
100
AcDbEntity
  8
10
  6
Continuous
100
AcDbLine
 10
138.3215549999997
 20
131.3079149999997
 30
0.0
 11
139.2190949999996
 21
132.205455
 31
0.0
  0
LINE
  5
A697
330
1E
100
AcDbEntity
  8
10
  6
Continuous
100
AcDbLine
 10
135.6249999999999
 20
129.9371849999999
 30
0.0
 11
136.875
 21
131.1871849999999
 31
0.0
  0
LINE
  5
A698
330
1E
100
AcDbEntity
  8
10
  6
Continuous
100
AcDbLine
 10
135.6249999999999
 20
131.26301
 30
0.0
 11
136.875
 21
132.51301
 31
0.0
  0
LINE
  5
A699
330
1E
100
AcDbEntity
  8
10
  6
Continuous
100
AcDbLine
 10
143.125
 20
129.482235
 30
0.0
 11
144.375
 21
130.7322349999999
 31
0.0
  0
LINE
  5
A69A
330
1E
100
AcDbEntity
  8
10
  6
Continuous
100
AcDbLine
 10
142.1430499999999
 20
125.8486299999997
 30
0.0
 11
143.0405899999998
 21
126.746175
 31
0.0
  0
LINE
  5
A69B
330
1E
100
AcDbEntity
  8
10
  6
Continuous
100
AcDbLine
 10
140.6872399999999
 20
127.92836
 30
0.0
 11
141.584785
 21
128.8258999999998
 31
0.0
  0
LINE
  5
A69C
330
1E
100
AcDbEntity
  8
10
  6
Continuous
100
AcDbLine
 10
135.6249999999999
 20
124.1919449999999
 30
0.0
 11
136.875
 21
125.4419449999996
 31
0.0
  0
LINE
  5
A69D
330
1E
100
AcDbEntity
  8
10
  6
Continuous
100
AcDbLine
 10
141.051195
 20
127.408425
 30
0.0
 11
141.9487349999999
 21
128.30597
 31
0.0
  0
LINE
  5
A69E
330
1E
100
AcDbEntity
  8
10
  6
Continuous
100
AcDbLine
 10
135.6249999999999
 20
126.8435949999999
 30
0.0
 11
136.875
 21
128.0935949999999
 31
0.0
  0
LINE
  5
A69F
330
1E
100
AcDbEntity
  8
10
  6
Continuous
100
AcDbLine
 10
135.6249999999999
 20
127.285535
 30
0.0
 11
136.875
 21
128.535535
 31
0.0
  0
LINE
  5
A6A0
330
1E
100
AcDbEntity
  8
10
  6
Continuous
100
AcDbLine
 10
139.2314350000001
 20
130.008085
 30
0.0
 11
140.1289749999999
 21
130.9056249999999
 31
0.0
  0
LINE
  5
A6A1
330
1E
100
AcDbEntity
  8
10
  6
Continuous
100
AcDbLine
 10
140.3232899999999
 20
128.4482900000001
 30
0.0
 11
141.2208299999998
 21
129.34583
 31
0.0
  0
LINE
  5
A6A2
330
1E
100
AcDbEntity
  8
10
  6
Continuous
100
AcDbLine
 10
143.125
 20
128.59835
 30
0.0
 11
144.375
 21
129.84835
 31
0.0
  0
LINE
  5
A6A3
330
1E
100
AcDbEntity
  8
10
  6
Continuous
100
AcDbLine
 10
142.8709549999998
 20
124.8087700000001
 30
0.0
 11
144.375
 21
126.3128149999999
 31
0.0
  0
LINE
  5
A6A4
330
1E
100
AcDbEntity
  8
10
  6
Continuous
100
AcDbLine
 10
143.579955
 20
123.75
 30
0.0
 11
144.375
 21
124.54505
 31
0.0
  0
LINE
  5
A6A5
330
1E
100
AcDbEntity
  8
10
  6
Continuous
100
AcDbLine
 10
143.125
 20
126.8305850000002
 30
0.0
 11
144.375
 21
128.0805850000002
 31
0.0
  0
LINE
  5
A6A6
330
1E
100
AcDbEntity
  8
10
  6
Continuous
100
AcDbLine
 10
143.125
 20
131.25
 30
0.0
 11
144.375
 21
132.4999999999999
 31
0.0
  0
LINE
  5
A6A7
330
1E
100
AcDbEntity
  8
10
  6
Continuous
100
AcDbLine
 10
137.9575999999999
 20
131.8278449999999
 30
0.0
 11
138.855145
 21
132.725385
 31
0.0
  0
LINE
  5
A6A8
330
1E
100
AcDbEntity
  8
10
  6
Continuous
100
AcDbLine
 10
135.6249999999999
 20
125.9597099999999
 30
0.0
 11
136.875
 21
127.2097099999996
 31
0.0
  0
LINE
  5
A6A9
330
1E
100
AcDbEntity
  8
10
  6
Continuous
100
AcDbLine
 10
136.5088849999999
 20
123.75
 30
0.0
 11
136.875
 21
124.1161200000002
 31
0.0
  0
LINE
  5
A6AA
330
1E
100
AcDbEntity
  8
10
  6
Continuous
100
AcDbLine
 10
135.6249999999999
 20
130.3791249999999
 30
0.0
 11
136.875
 21
131.6291249999999
 31
0.0
  0
LINE
  5
A6AB
330
1E
100
AcDbEntity
  8
10
  6
Continuous
100
AcDbLine
 10
143.125
 20
133.9016499999999
 30
0.0
 11
144.375
 21
135.1516499999999
 31
0.0
  0
LINE
  5
A6AC
330
1E
100
AcDbEntity
  8
10
  6
Continuous
100
AcDbLine
 10
142.68898
 20
125.0687349999999
 30
0.0
 11
144.375
 21
126.75476
 31
0.0
  0
LINE
  5
A6AD
330
1E
100
AcDbEntity
  8
10
  6
Continuous
100
AcDbLine
 10
143.125
 20
127.2725249999999
 30
0.0
 11
144.375
 21
128.5225249999999
 31
0.0
  0
LINE
  5
A6AE
330
1E
100
AcDbEntity
  8
10
  6
Continuous
100
AcDbLine
 10
140.5052649999996
 20
128.1883250000001
 30
0.0
 11
141.4028049999999
 21
129.0858649999996
 31
0.0
  0
LINE
  5
A6AF
330
1E
100
AcDbEntity
  8
10
  6
Continuous
100
AcDbLine
 10
141.7790999999999
 20
126.3685649999999
 30
0.0
 11
142.6766399999999
 21
127.2661049999999
 31
0.0
  0
LINE
  5
A6B0
330
1E
100
AcDbEntity
  8
10
  6
Continuous
100
AcDbLine
 10
138.5035300000001
 20
131.0479450000003
 30
0.0
 11
139.40107
 21
131.9454899999996
 31
0.0
  0
LINE
  5
A6B1
330
1E
100
AcDbEntity
  8
10
  6
Continuous
100
AcDbLine
 10
135.6249999999999
 20
136.1243699999999
 30
0.0
 11
135.7506349999997
 21
136.25
 31
0.0
  0
LINE
  5
A6B2
330
1E
100
AcDbEntity
  8
10
  6
Continuous
100
AcDbLine
 10
139.595385
 20
129.4881550000002
 30
0.0
 11
140.492925
 21
130.3856949999999
 31
0.0
  0
LINE
  5
A6B3
330
1E
100
AcDbEntity
  8
10
  6
Continuous
100
AcDbLine
 10
137.5936499999999
 20
132.347775
 30
0.0
 11
138.4911899999995
 21
133.2453149999996
 31
0.0
  0
LINE
  5
A6B4
330
1E
100
AcDbEntity
  8
10
  6
Continuous
100
AcDbLine
 10
143.125
 20
130.8080600000002
 30
0.0
 11
144.375
 21
132.0580600000002
 31
0.0
  0
LINE
  5
A6B5
330
1E
100
AcDbEntity
  8
10
  6
Continuous
100
AcDbLine
 10
143.125
 20
134.3435949999999
 30
0.0
 11
144.375
 21
135.5935949999999
 31
0.0
  0
LINE
  5
A6B6
330
1E
100
AcDbEntity
  8
10
  6
Continuous
100
AcDbLine
 10
135.6249999999999
 20
133.4727199999999
 30
0.0
 11
137.2173599999997
 21
135.065075
 31
0.0
  0
LINE
  5
A6B7
330
1E
100
AcDbEntity
  8
10
  6
Continuous
100
AcDbLine
 10
135.6249999999999
 20
125.075825
 30
0.0
 11
136.875
 21
126.325825
 31
0.0
  0
LINE
  5
A6B8
330
1E
100
AcDbEntity
  8
10
  6
Continuous
100
AcDbLine
 10
135.6249999999999
 20
134.7985449999999
 30
0.0
 11
136.6714300000001
 21
135.8449750000002
 31
0.0
  0
LINE
  5
A6B9
330
1E
100
AcDbEntity
  8
10
  6
Continuous
100
AcDbLine
 10
143.125
 20
132.133885
 30
0.0
 11
144.375
 21
133.383885
 31
0.0
  0
LINE
  5
A6BA
330
1E
100
AcDbEntity
  8
10
  6
Continuous
100
AcDbLine
 10
143.125
 20
135.227475
 30
0.0
 11
144.1475249999998
 21
136.25
 31
0.0
  0
LINE
  5
A6BB
330
1E
100
AcDbEntity
  8
10
  6
Continuous
100
AcDbLine
 10
143.2349049999998
 20
124.28884
 30
0.0
 11
144.375
 21
125.4289350000002
 31
0.0
  0
LINE
  5
A6BC
330
1E
100
AcDbEntity
  8
10
  6
Continuous
100
AcDbLine
 10
137.2297
 20
132.867705
 30
0.0
 11
138.12724
 21
133.7652500000002
 31
0.0
  0
LINE
  5
A6BD
330
1E
100
AcDbEntity
  8
10
  6
Continuous
100
AcDbLine
 10
135.6249999999999
 20
132.146895
 30
0.0
 11
137.7632849999999
 21
134.2851799999999
 31
0.0
  0
LINE
  5
A6BE
330
1E
100
AcDbEntity
  8
10
  6
Continuous
100
AcDbLine
 10
143.125
 20
127.7144650000002
 30
0.0
 11
144.375
 21
128.9644650000002
 31
0.0
  0
LINE
  5
A6BF
330
1E
100
AcDbEntity
  8
10
  6
Continuous
100
AcDbLine
 10
137.4116749999996
 20
132.6077399999997
 30
0.0
 11
138.3092149999995
 21
133.5052799999999
 31
0.0
  0
LINE
  5
A6C0
330
1E
100
AcDbEntity
  8
10
  6
Continuous
100
AcDbLine
 10
135.6249999999999
 20
129.4952450000002
 30
0.0
 11
136.875
 21
130.7452450000002
 31
0.0
  0
LINE
  5
A6C1
330
1E
100
AcDbEntity
  8
10
  6
Continuous
100
AcDbLine
 10
141.5971199999999
 20
126.62853
 30
0.0
 11
142.494665
 21
127.52607
 31
0.0
  0
LINE
  5
A6C2
330
1E
100
AcDbEntity
  8
10
  6
Continuous
100
AcDbLine
 10
143.125
 20
133.0177700000002
 30
0.0
 11
144.375
 21
134.2677700000002
 31
0.0
  0
LINE
  5
A6C3
330
1E
100
AcDbEntity
  8
10
  6
Continuous
100
AcDbLine
 10
143.125
 20
129.9241750000001
 30
0.0
 11
144.375
 21
131.1741750000001
 31
0.0
  0
LINE
  5
A6C4
330
1E
100
AcDbEntity
  8
10
  6
Continuous
100
AcDbLine
 10
137.7756249999997
 20
132.0878100000001
 30
0.0
 11
138.6731649999999
 21
132.9853500000002
 31
0.0
  0
LINE
  5
A6C5
330
1E
100
AcDbEntity
  8
10
  6
Continuous
100
AcDbLine
 10
135.6249999999999
 20
126.4016499999996
 30
0.0
 11
136.875
 21
127.6516499999999
 31
0.0
  0
LINE
  5
A6C6
330
1E
100
AcDbEntity
  8
10
  6
Continuous
100
AcDbLine
 10
135.6249999999999
 20
135.2404850000002
 30
0.0
 11
136.4894549999999
 21
136.1049399999995
 31
0.0
  0
LINE
  5
A6C7
330
1E
100
AcDbEntity
  8
10
  6
Continuous
100
AcDbLine
 10
138.1395799999999
 20
131.56788
 30
0.0
 11
139.0371199999997
 21
132.4654199999999
 31
0.0
  0
LINE
  5
A6C8
330
1E
100
AcDbEntity
  8
10
  6
Continuous
100
AcDbLine
 10
135.6249999999999
 20
123.75
 30
0.0
 11
136.875
 21
125.0
 31
0.0
  0
LINE
  5
A6C9
330
1E
100
AcDbEntity
  8
10
  6
Continuous
100
AcDbLine
 10
143.125
 20
129.0402949999996
 30
0.0
 11
144.375
 21
130.2902949999999
 31
0.0
  0
LINE
  5
A6CA
330
1E
100
AcDbEntity
  8
10
  6
Continuous
100
AcDbLine
 10
140.8692199999998
 20
127.6683949999999
 30
0.0
 11
141.7667599999997
 21
128.5659349999999
 31
0.0
  0
LINE
  5
A6CB
330
1E
100
AcDbEntity
  8
10
  6
Continuous
100
AcDbLine
 10
143.125
 20
136.1113600000001
 30
0.0
 11
143.2636449999999
 21
136.25
 31
0.0
  0
LINE
  5
A6CC
330
1E
100
AcDbEntity
  8
10
  6
Continuous
100
AcDbLine
 10
135.6249999999999
 20
134.3566049999999
 30
0.0
 11
136.8534049999996
 21
135.58501
 31
0.0
  0
LINE
  5
A6CD
330
1E
100
AcDbEntity
  8
10
  6
Continuous
100
AcDbLine
 10
135.6249999999999
 20
132.5888349999999
 30
0.0
 11
137.5813099999998
 21
134.5451449999996
 31
0.0
  0
LINE
  5
A6CE
330
1E
100
AcDbEntity
  8
10
  6
Continuous
100
AcDbLine
 10
135.6249999999999
 20
130.8210699999999
 30
0.0
 11
136.875
 21
132.07107
 31
0.0
  0
LINE
  5
A6CF
330
1E
100
AcDbEntity
  8
10
  6
Continuous
100
AcDbLine
 10
143.4168799999999
 20
124.02887
 30
0.0
 11
144.375
 21
124.9869899999999
 31
0.0
  0
LINE
  5
A6D0
330
1E
100
AcDbEntity
  8
10
  6
Continuous
100
AcDbLine
 10
143.125
 20
134.785535
 30
0.0
 11
144.375
 21
136.035535
 31
0.0
  0
LINE
  5
A6D1
330
1E
100
AcDbEntity
  8
10
  6
Continuous
100
AcDbLine
 10
143.05293
 20
124.5488049999996
 30
0.0
 11
144.375
 21
125.8708749999996
 31
0.0
  0
LINE
  5
A6D2
330
1E
100
AcDbEntity
  8
10
  6
Continuous
100
AcDbLine
 10
135.6249999999999
 20
135.6824299999999
 30
0.0
 11
136.192575
 21
136.25
 31
0.0
  0
LINE
  5
A6D3
330
1E
100
AcDbEntity
  8
10
  6
Continuous
100
AcDbLine
 10
143.125
 20
131.691945
 30
0.0
 11
144.375
 21
132.941945
 31
0.0
  0
LINE
  5
A6D4
330
1E
100
AcDbEntity
  8
10
  6
Continuous
100
AcDbLine
 10
143.125
 20
130.3661200000002
 30
0.0
 11
144.375
 21
131.6161200000002
 31
0.0
  0
LINE
  5
A6D5
330
1E
100
AcDbEntity
  8
10
  6
Continuous
100
AcDbLine
 10
136.066945
 20
123.75
 30
0.0
 11
136.875
 21
124.5580600000002
 31
0.0
  0
LINE
  5
A6D6
330
1E
100
AcDbEntity
  8
10
  6
Continuous
100
AcDbLine
 10
137.0477199999998
 20
133.127675
 30
0.0
 11
137.9452649999997
 21
134.0252149999999
 31
0.0
  0
LINE
  5
A6D7
330
1E
100
AcDbEntity
  8
10
  6
Continuous
100
AcDbLine
 10
143.125
 20
128.1564099999999
 30
0.0
 11
144.375
 21
129.4064099999999
 31
0.0
  0
LINE
  5
A6DF
330
1E
100
AcDbEntity
  8
18
  6
DIVIDE
100
AcDbLine
 10
-105.0
 20
-301.0
 30
0.0
 11
174.9999999999995
 21
-301.0
 31
0.0
  0
LINE
  5
A6E0
330
1E
100
AcDbEntity
  8
10
  6
DIVIDE
100
AcDbLine
 10
-105.0
 20
-540.0000000000001
 30
0.0
 11
174.9999999999995
 21
-540.0000000000001
 31
0.0
  0
LINE
  5
A6E1
330
1E
100
AcDbEntity
  8
10
  6
DIVIDE
100
AcDbLine
 10
-127.561035
 20
-424.0000000000001
 30
0.0
 11
189.8854999999998
 21
-424.0000000000001
 31
0.0
  0
LINE
  5
A6E2
330
1E
100
AcDbEntity
  8
10
  6
DIVIDE
100
AcDbLine
 10
-105.0
 20
-432.0000000000002
 30
0.0
 11
174.9999999999995
 21
-432.0000000000002
 31
0.0
  0
LINE
  5
A6E3
330
1E
100
AcDbEntity
  8
10
  6
DIVIDE
100
AcDbLine
 10
-129.22998
 20
-548.0000000000001
 30
0.0
 11
191.25464
 21
-548.0000000000001
 31
0.0
  0
LINE
  5
A6E4
330
1E
100
AcDbEntity
  8
18
  6
DIVIDE
100
AcDbLine
 10
-105.0
 20
-671.0000000000002
 30
0.0
 11
174.9999999999995
 21
-671.0000000000002
 31
0.0
  0
LINE
  5
A6E5
330
1E
100
AcDbEntity
  8
10
  6
DIVIDE
100
AcDbLine
 10
-105.0
 20
-392.0000000000001
 30
0.0
 11
174.9999999999995
 21
-392.0000000000001
 31
0.0
  0
LINE
  5
A6E6
330
1E
100
AcDbEntity
  8
10
  6
DIVIDE
100
AcDbLine
 10
-105.0
 20
-580.0000000000002
 30
0.0
 11
174.9999999999995
 21
-580.0000000000002
 31
0.0
  0
LINE
  5
A6FF
330
1E
100
AcDbEntity
  8
18
  6
DIVIDE
100
AcDbLine
 10
-105.0
 20
-671.0000000000002
 30
0.0
 11
-105.0
 21
-301.0
 31
0.0
  0
SPLINE
  5
A714
330
1E
100
AcDbEntity
  8
10
100
AcDbSpline
210
0.0
220
0.0
230
1.0
 70
     8
 71
     3
 72
    12
 73
     8
 74
     0
 42
0.0000000001
 43
0.0000000001
 40
0.0
 40
0.0
 40
0.0
 40
0.0
 40
0.2
 40
0.4
 40
0.6000000000000001
 40
0.8
 40
1.0
 40
1.0
 40
1.0
 40
1.0
 10
-131.8608380551639
 20
-539.9999987028223
 30
0.0
 10
-130.3881818051638
 20
-541.0566393278221
 30
0.0
 10
-127.4428693051635
 20
-543.1701647184523
 30
0.0
 10
-131.8784161801634
 20
-557.3188463590724
 30
0.0
 10
-125.3437482114136
 20
-562.4633776090725
 30
0.0
 10
-130.7470685239138
 20
-571.2026354215722
 30
0.0
 10
-131.5610333676634
 20
-577.0676256559522
 30
0.0
 10
-131.9677716489138
 20
-579.9999987028225
 30
0.0
  0
LINE
  5
A715
330
1E
100
AcDbEntity
  8
10
100
AcDbLine
 10
-131.9677699999999
 20
-580.0000000000002
 30
0.0
 11
-105.0
 21
-580.0000000000002
 31
0.0
  0
LINE
  5
A716
330
1E
100
AcDbEntity
  8
10
100
AcDbLine
 10
-131.8608400000002
 20
-540.0000000000001
 30
0.0
 11
-105.0
 21
-540.0000000000001
 31
0.0
  0
SPLINE
  5
A72C
330
1E
100
AcDbEntity
  8
10
100
AcDbSpline
210
0.0
220
0.0
230
1.0
 70
     8
 71
     3
 72
    12
 73
     8
 74
     0
 42
0.0000000001
 43
0.0000000001
 40
0.0
 40
0.0
 40
0.0
 40
0.0
 40
0.2
 40
0.4
 40
0.6000000000000001
 40
0.8
 40
1.0
 40
1.0
 40
1.0
 40
1.0
 10
-131.8608380551639
 20
-431.999998702822
 30
0.0
 10
-131.2192364926634
 20
-431.2253404997021
 30
0.0
 10
-129.9355450864134
 20
-429.6760240934522
 30
0.0
 10
-121.9086896176635
 20
-411.2956529997025
 30
0.0
 10
-135.5644513364135
 20
-407.0385729215725
 30
0.0
 10
-121.5668927426635
 20
-398.9819322965725
 30
0.0
 10
-124.4345685239135
 20
-394.3273912809522
 30
0.0
 10
-125.8686505551636
 20
-391.999998702822
 30
0.0
  0
LINE
  5
A72D
330
1E
100
AcDbEntity
  8
10
100
AcDbLine
 10
-131.8608400000002
 20
-432.0000000000002
 30
0.0
 11
-105.0
 21
-432.0000000000002
 31
0.0
  0
LINE
  5
A72E
330
1E
100
AcDbEntity
  8
10
100
AcDbLine
 10
-125.8686500000002
 20
-392.0000000000001
 30
0.0
 11
-105.0
 21
-392.0000000000001
 31
0.0
  0
LINE
  5
A730
330
1E
100
AcDbEntity
  8
18
  6
DIVIDE
100
AcDbLine
 10
174.9999999999995
 20
-671.0000000000002
 30
0.0
 11
174.9999999999995
 21
-301.0
 31
0.0
  0
DIMENSION
  5
A731
330
1E
100
AcDbEntity
  8
30
  6
Continuous
100
AcDbDimension
  2
*D11
 10
246.6538999999995
 20
-501.0
 30
0.0
 11
240.6538999999998
 21
-533.0
 31
0.0
 70
    32
  1
 <> 
 71
     0
 72
     0
 41
0.0
 42
64.00000000000027
  3
STANDARD1
100
AcDbAlignedDimension
 13
50.0
 23
-565.0000000000002
 33
0.0
 14
194.9999999999995
 24
-501.0
 34
0.0
 50
90.0
100
AcDbRotatedDimension
  0
DIMENSION
  5
A732
330
1E
100
AcDbEntity
  8
30
  6
Continuous
100
AcDbDimension
  2
*D12
 10
247.1538999999997
 20
-565.0000000000002
 30
0.0
 11
247.1538999999998
 21
-572.4999999999997
 31
0.0
 70
   160
  1
<> 
 71
     5
 42
15.0
  3
STANDARD1
100
AcDbAlignedDimension
 13
196.1679699999995
 23
-580.0000000000002
 33
0.0
 14
50.0
 24
-565.0000000000002
 34
0.0
 50
90.0
100
AcDbRotatedDimension
  0
DIMENSION
  5
A733
330
1E
100
AcDbEntity
  8
30
  6
Continuous
100
AcDbDimension
  2
*D13
 10
44.99999999999999
 20
-734.0958750000003
 30
0.0
 11
-0.0000000000000067
 21
-728.0958750000003
 31
0.0
 70
    32
  1
 <> 
 71
     5
 42
90.0
  3
STANDARD1
100
AcDbAlignedDimension
 13
-45.0
 23
-570.0000000000001
 33
0.0
 14
45.0
 24
-570.0000000000001
 34
0.0
100
AcDbRotatedDimension
  0
LINE
  5
A734
330
1E
100
AcDbEntity
  8
12
100
AcDbLine
 10
-60.0
 20
-565.0000000000002
 30
0.0
 11
-30.0
 21
-565.0000000000002
 31
0.0
  0
CIRCLE
  5
A735
330
1E
100
AcDbEntity
  8
12
100
AcDbCircle
 10
-45.0
 20
-565.0000000000002
 30
0.0
 40
5.5
  0
LINE
  5
A736
330
1E
100
AcDbEntity
  8
12
100
AcDbLine
 10
-45.0
 20
-580.0000000000002
 30
0.0
 11
-45.0
 21
-550.0
 31
0.0
  0
LINE
  5
A737
330
1E
100
AcDbEntity
  8
12
100
AcDbLine
 10
30.0
 20
-565.0000000000002
 30
0.0
 11
60.0
 21
-565.0000000000002
 31
0.0
  0
DIMENSION
  5
A738
330
1E
100
AcDbEntity
  8
30
  6
Continuous
100
AcDbDimension
  2
*D14
 10
47.7943400000008
 20
-569.7372650000009
 30
0.0
 11
32.1895423020206
 21
-552.5400932314799
 31
0.0
 70
    35
 71
     5
 42
11.00000031711561
  3
STANDARD1
100
AcDbDiametricDimension
 15
42.20566499999992
 25
-560.2627350000004
 35
0.0
 40
0.0
  0
LINE
  5
A739
330
1E
100
AcDbEntity
  8
12
100
AcDbLine
 10
45.0
 20
-580.0000000000002
 30
0.0
 11
45.0
 21
-550.0
 31
0.0
  0
CIRCLE
  5
A73A
330
1E
100
AcDbEntity
  8
12
100
AcDbCircle
 10
45.0
 20
-565.0000000000002
 30
0.0
 40
5.5
  0
SPLINE
  5
A73B
330
1E
100
AcDbEntity
  8
10
100
AcDbSpline
210
0.0
220
0.0
230
1.0
 70
     8
 71
     3
 72
    12
 73
     8
 74
     0
 42
0.0000000001
 43
0.0000000001
 40
0.0
 40
0.0
 40
0.0
 40
0.0
 40
0.2
 40
0.4
 40
0.6000000000000001
 40
0.8
 40
1.0
 40
1.0
 40
1.0
 40
1.0
 10
195.2739275698363
 20
-539.9999987028223
 30
0.0
 10
195.5502947573363
 20
-541.5334459684522
 30
0.0
 10
196.103029132336
 20
-544.6000963590721
 30
0.0
 10
185.6167010073363
 20
-551.5998522184522
 30
0.0
 10
200.4731463198363
 20
-556.7441393278222
 30
0.0
 10
184.1342791323363
 20
-572.6323229215722
 30
0.0
 10
188.823243976086
 20
-577.5441881559522
 30
0.0
 10
191.167970538586
 20
-579.9999987028225
 30
0.0
  0
LINE
  5
A73C
330
1E
100
AcDbEntity
  8
10
100
AcDbLine
 10
174.9999999999995
 20
-580.0000000000002
 30
0.0
 11
191.1679699999995
 21
-580.0000000000002
 31
0.0
  0
LINE
  5
A73D
330
1E
100
AcDbEntity
  8
10
100
AcDbLine
 10
174.9999999999995
 20
-540.0000000000001
 30
0.0
 11
195.2739299999993
 21
-540.0000000000001
 31
0.0
  0
DIMENSION
  5
A73E
330
1E
100
AcDbEntity
  8
30
  6
Continuous
100
AcDbDimension
  2
*D15
 10
246.6538999999995
 20
-407.0000000000002
 30
0.0
 11
240.6538999999998
 21
-454.0
 31
0.0
 70
    32
  1
 <> 
 71
     0
 72
     0
 41
0.0
 42
93.99999999999971
  3
STANDARD1
100
AcDbAlignedDimension
 13
199.9999999999995
 23
-501.0
 33
0.0
 14
50.0
 24
-407.0000000000002
 34
0.0
 50
90.0
100
AcDbRotatedDimension
  0
DIMENSION
  5
A73F
330
1E
100
AcDbEntity
  8
30
  6
Continuous
100
AcDbDimension
  2
*D16
 10
246.6538999999995
 20
-392.0000000000001
 30
0.0
 11
246.6538999999995
 21
-399.4999999999997
 31
0.0
 70
   160
  1
<> 
 71
     5
 42
15.00000000000005
  3
STANDARD1
100
AcDbAlignedDimension
 13
50.0
 23
-407.0000000000002
 33
0.0
 14
200.3164099999994
 24
-392.0000000000001
 34
0.0
 50
90.0
100
AcDbRotatedDimension
  0
LINE
  5
A740
330
1E
100
AcDbEntity
  8
12
100
AcDbLine
 10
-60.0
 20
-407.0000000000002
 30
0.0
 11
-30.0
 21
-407.0000000000002
 31
0.0
  0
CIRCLE
  5
A741
330
1E
100
AcDbEntity
  8
12
100
AcDbCircle
 10
-45.0
 20
-407.0000000000002
 30
0.0
 40
5.5
  0
LINE
  5
A742
330
1E
100
AcDbEntity
  8
12
100
AcDbLine
 10
-45.0
 20
-422.0000000000001
 30
0.0
 11
-45.0
 21
-392.0000000000001
 31
0.0
  0
LINE
  5
A743
330
1E
100
AcDbEntity
  8
12
100
AcDbLine
 10
30.0
 20
-407.0000000000002
 30
0.0
 11
60.0
 21
-407.0000000000002
 31
0.0
  0
LINE
  5
A744
330
1E
100
AcDbEntity
  8
12
100
AcDbLine
 10
45.0
 20
-422.0000000000001
 30
0.0
 11
45.0
 21
-392.0000000000001
 31
0.0
  0
CIRCLE
  5
A745
330
1E
100
AcDbEntity
  8
12
100
AcDbCircle
 10
45.0
 20
-407.0000000000002
 30
0.0
 40
5.5
  0
SPLINE
  5
A749
330
1E
100
AcDbEntity
  8
10
100
AcDbSpline
210
0.0
220
0.0
230
1.0
 70
     8
 71
     3
 72
    11
 73
     7
 74
     0
 42
0.0000000001
 43
0.0000000001
 40
0.0
 40
0.0
 40
0.0
 40
0.0
 40
0.25
 40
0.5
 40
0.75
 40
1.0
 40
1.0
 40
1.0
 40
1.0
 10
195.316408038586
 20
-391.999998702822
 30
0.0
 10
192.8420428042159
 20
-396.2736803434525
 30
0.0
 10
187.8933123354663
 20
-404.8212877653222
 30
0.0
 10
200.9455584292158
 20
-409.8391100309521
 30
0.0
 10
187.326173663586
 20
-422.7792955778221
 30
0.0
 10
190.4987810854658
 20
-428.9265123747021
 30
0.0
 10
192.0849627260863
 20
-431.999998702822
 30
0.0
  0
LINE
  5
A74A
330
1E
100
AcDbEntity
  8
10
100
AcDbLine
 10
174.9999999999995
 20
-432.0000000000002
 30
0.0
 11
192.0849649999991
 21
-432.0000000000002
 31
0.0
  0
LINE
  5
A74B
330
1E
100
AcDbEntity
  8
10
100
AcDbLine
 10
174.9999999999995
 20
-392.0000000000001
 30
0.0
 11
195.3164099999994
 21
-392.0000000000001
 31
0.0
  0
LINE
  5
A74C
330
1E
100
AcDbEntity
  8
18
  6
DIVIDE
100
AcDbLine
 10
581.3000000000004
 20
-220.0000000000005
 30
0.0
 11
581.3000000000004
 21
249.9999999999991
 31
0.0
  0
LINE
  5
A74D
330
1E
100
AcDbEntity
  8
160
  6
Continuous
 62
     3
100
AcDbLine
 10
595.3999049999997
 20
106.9999999999992
 30
0.0
 11
595.3999049999997
 21
-77.0000000000008
 31
0.0
  0
LINE
  5
A74E
330
1E
100
AcDbEntity
  8
160
  6
Continuous
 62
     3
100
AcDbLine
 10
580.0
 20
198.9999999999987
 30
0.0
 11
580.0
 21
-169.0000000000009
 31
0.0
  0
LINE
  5
A751
330
1E
100
AcDbEntity
  8
18
  6
DIVIDE
100
AcDbLine
 10
586.3000000000002
 20
-220.0000000000005
 30
0.0
 11
586.3000000000002
 21
249.9999999999991
 31
0.0
  0
ARC
  5
A756
330
1E
100
AcDbEntity
  8
10
  6
DIVIDE
100
AcDbCircle
 10
635.0
 20
70.99999999999903
 30
0.0
 40
3.0
100
AcDbArc
 50
0.0
 51
90.00000299999769
  0
DIMENSION
  5
A758
330
1E
100
AcDbEntity
  8
30
  6
Continuous
100
AcDbDimension
  2
*D17
 10
836.9538999999999
 20
143.999999999999
 30
0.0
 11
830.9538999999999
 21
71.99999999999923
 31
0.0
 70
    32
  1
 <> 
 71
     0
 72
     0
 41
0.0
 42
144.0
  3
STANDARD1
100
AcDbAlignedDimension
 13
685.9072299999998
 23
-0.0000000000008504
 33
0.0
 14
759.0476699999997
 24
143.999999999999
 34
0.0
 50
90.0
100
AcDbRotatedDimension
  0
DIMENSION
  5
A75B
330
1E
100
AcDbEntity
  8
30
  6
Continuous
100
AcDbDimension
  2
*D18
 10
660.0
 20
-239.3322434222735
 30
0.0
 11
629.0
 21
-233.3322434222734
 31
0.0
 70
    32
  1
 <> 
 71
     5
 42
62.0
  3
STANDARD1
100
AcDbAlignedDimension
 13
598.0
 23
-90.00000000000083
 33
0.0
 14
660.0
 24
-148.0000000000008
 34
0.0
100
AcDbRotatedDimension
  0
DIMENSION
  5
A75C
330
1E
100
AcDbEntity
  8
30
  6
Continuous
100
AcDbDimension
  2
*D19
 10
690.0002449999997
 20
-239.3322434222735
 30
0.0
 11
675.0001224999997
 21
-233.3322434222734
 31
0.0
 70
    32
  1
 <> 
 71
     5
 42
30.00024499999971
  3
STANDARD1
100
AcDbAlignedDimension
 13
660.0
 23
-148.0000000000008
 33
0.0
 14
690.0002449999997
 24
-129.0000000000009
 34
0.0
100
AcDbRotatedDimension
  0
DIMENSION
  5
A75D
330
1E
100
AcDbEntity
  8
30
  6
Continuous
100
AcDbDimension
  2
*D20
 10
619.0
 20
-103.0000000000009
 30
0.0
 11
608.4999999999999
 21
-97.00000000000091
 31
0.0
 70
    32
  1
 <> 
 71
     5
 42
21.0
  3
STANDARD1
100
AcDbAlignedDimension
 13
598.0
 23
-90.00000000000083
 33
0.0
 14
619.0
 24
-69.00000000000097
 34
0.0
100
AcDbRotatedDimension
  0
LINE
  5
A75E
330
1E
100
AcDbEntity
  8
18
  6
DIVIDE
100
AcDbLine
 10
585.0
 20
-220.0000000000005
 30
0.0
 11
580.0
 21
-220.0000000000005
 31
0.0
  0
LINE
  5
A767
330
1E
100
AcDbEntity
  8
10
  6
DASHDOT
100
AcDbLine
 10
603.0
 20
-48.50000000000084
 30
0.0
 11
603.0
 21
-76.00000000000084
 31
0.0
  0
LINE
  5
A768
330
1E
100
AcDbEntity
  8
12
100
AcDbLine
 10
613.4999999999998
 20
-54.19995000000088
 30
0.0
 11
613.4999999999998
 21
-73.80005000000074
 31
0.0
  0
LINE
  5
A769
330
1E
100
AcDbEntity
  8
160
  6
Continuous
 62
     3
100
AcDbLine
 10
605.4999999999997
 20
-54.19995000000088
 30
0.0
 11
605.4999999999997
 21
-73.80005000000074
 31
0.0
  0
LINE
  5
A774
330
1E
100
AcDbEntity
  8
160
  6
Continuous
 62
     3
100
AcDbLine
 10
605.4999999999997
 20
-73.19995000000068
 30
0.0
 11
603.0
 21
-73.19995000000068
 31
0.0
  0
LINE
  5
A775
330
1E
100
AcDbEntity
  8
12
100
AcDbLine
 10
613.4999999999998
 20
-73.80005000000074
 30
0.0
 11
605.4999999999997
 21
-73.80005000000074
 31
0.0
  0
LINE
  5
A776
330
1E
100
AcDbEntity
  8
160
  6
Continuous
 62
     3
100
AcDbLine
 10
595.3999049999997
 20
-77.0000000000008
 30
0.0
 11
598.0
 21
-77.0000000000008
 31
0.0
  0
LINE
  5
A777
330
1E
100
AcDbEntity
  8
150
  6
Continuous
 62
    95
100
AcDbLine
 10
598.0
 20
-79.00000000000097
 30
0.0
 11
600.0
 21
-79.00000000000097
 31
0.0
  0
ARC
  5
A778
330
1E
100
AcDbEntity
  8
10
  6
Continuous
100
AcDbCircle
 10
600.0
 20
-76.00000000000084
 30
0.0
 40
3.0
100
AcDbArc
 50
270.0000009999949
 51
0.0000100000010064
  0
LINE
  5
A77D
330
1E
100
AcDbEntity
  8
10
  6
DIVIDE
100
AcDbLine
 10
607.5
 20
-44.00000000000097
 30
0.0
 11
635.0
 21
-44.00000000000097
 31
0.0
  0
LINE
  5
A77F
330
1E
100
AcDbEntity
  8
12
100
AcDbLine
 10
605.4999999999997
 20
-59.00000000000098
 30
0.0
 11
619.0
 21
-59.00000000000098
 31
0.0
  0
LINE
  5
A780
330
1E
100
AcDbEntity
  8
10
  6
DIVIDE
100
AcDbLine
 10
598.0
 20
-39.00000000000096
 30
0.0
 11
638.0
 21
-39.00000000000096
 31
0.0
  0
LINE
  5
A781
330
1E
100
AcDbEntity
  8
12
  6
DASHDOT
100
AcDbLine
 10
585.3999049999997
 20
-64.00000000000097
 30
0.0
 11
629.0
 21
-64.00000000000097
 31
0.0
  0
LINE
  5
A782
330
1E
100
AcDbEntity
  8
12
100
AcDbLine
 10
605.4999999999997
 20
-69.00000000000097
 30
0.0
 11
619.0
 21
-69.00000000000097
 31
0.0
  0
LINE
  5
A783
330
1E
100
AcDbEntity
  8
12
100
AcDbLine
 10
613.4999999999998
 20
-54.19995000000088
 30
0.0
 11
605.4999999999997
 21
-54.19995000000088
 31
0.0
  0
LINE
  5
A784
330
1E
100
AcDbEntity
  8
160
  6
Continuous
 62
     3
100
AcDbLine
 10
605.4999999999997
 20
-54.80005000000097
 30
0.0
 11
603.0
 21
-54.80005000000097
 31
0.0
  0
ARC
  5
A785
330
1E
100
AcDbEntity
  8
10
  6
DASHDOT
100
AcDbCircle
 10
607.5
 20
-48.50000000000084
 30
0.0
 40
4.5
100
AcDbArc
 50
90.00000299999769
 51
180.0000050000005
  0
LINE
  5
A788
330
1E
100
AcDbEntity
  8
160
  6
Continuous
 62
     3
100
AcDbLine
 10
619.0
 20
-59.00000000000098
 30
0.0
 11
619.0
 21
-69.00000000000097
 31
0.0
  0
LINE
  5
A789
330
1E
100
AcDbEntity
  8
10
  6
DIVIDE
100
AcDbLine
 10
638.0
 20
-39.00000000000096
 30
0.0
 11
638.0
 21
-41.00000000000085
 31
0.0
  0
ARC
  5
A78A
330
1E
100
AcDbEntity
  8
10
  6
DIVIDE
100
AcDbCircle
 10
635.0
 20
-41.00000000000085
 30
0.0
 40
3.0
100
AcDbArc
 50
270.0000009999949
 51
0.0000100000010064
  0
LINE
  5
A78D
330
1E
100
AcDbEntity
  8
10
  6
DIVIDE
100
AcDbLine
 10
598.0
 20
68.99999999999915
 30
0.0
 11
638.0
 21
68.99999999999915
 31
0.0
  0
LINE
  5
A797
330
1E
100
AcDbEntity
  8
10
  6
DIVIDE
100
AcDbLine
 10
638.0
 20
70.99999999999903
 30
0.0
 11
638.0
 21
68.99999999999915
 31
0.0
  0
DIMENSION
  5
A798
330
1E
100
AcDbEntity
  8
30
  6
Continuous
100
AcDbDimension
  2
*D21
 10
836.9538999999999
 20
-0.0000000000008932
 30
0.0
 11
830.9538999999999
 21
-57.00000000000074
 31
0.0
 70
    32
  1
 <> 
 71
     0
 72
     0
 41
0.0
 42
113.9999999999999
  3
STANDARD1
100
AcDbAlignedDimension
 13
775.0002450000001
 23
-114.0000000000007
 33
0.0
 14
685.9072299999998
 24
-0.0000000000008504
 34
0.0
 50
90.0
100
AcDbRotatedDimension
  0
LINE
  5
A7B2
330
1E
100
AcDbEntity
  8
17
100
AcDbLine
 10
630.0
 20
143.999999999999
 30
0.0
 11
759.0476699999997
 21
143.999999999999
 31
0.0
  0
LINE
  5
A7B8
330
1E
100
AcDbEntity
  8
160
  6
Continuous
 62
     3
100
AcDbLine
 10
660.0
 20
136.4999999999989
 30
0.0
 11
660.0
 21
151.499999999999
 31
0.0
  0
LINE
  5
A7BA
330
1E
100
AcDbEntity
  8
10
  6
DIVIDE
100
AcDbLine
 10
607.5
 20
73.99999999999916
 30
0.0
 11
635.0
 21
73.99999999999916
 31
0.0
  0
LINE
  5
A7BB
330
1E
100
AcDbEntity
  8
12
  6
DASHDOT
100
AcDbLine
 10
585.3999049999997
 20
93.99999999999916
 30
0.0
 11
629.0
 21
93.99999999999916
 31
0.0
  0
LINE
  5
A7BC
330
1E
100
AcDbEntity
  8
12
100
AcDbLine
 10
605.4999999999997
 20
98.99999999999916
 30
0.0
 11
619.0
 21
98.99999999999916
 31
0.0
  0
LINE
  5
A7BD
330
1E
100
AcDbEntity
  8
12
100
AcDbLine
 10
605.4999999999997
 20
88.99999999999916
 30
0.0
 11
619.0
 21
88.99999999999916
 31
0.0
  0
ARC
  5
A7BE
330
1E
100
AcDbEntity
  8
10
  6
Continuous
100
AcDbCircle
 10
600.0
 20
105.999999999999
 30
0.0
 40
3.0
100
AcDbArc
 50
0.0
 51
89.9999920000018
  0
LINE
  5
A7BF
330
1E
100
AcDbEntity
  8
12
100
AcDbLine
 10
613.4999999999998
 20
84.19994999999909
 30
0.0
 11
605.4999999999997
 21
84.19994999999909
 31
0.0
  0
LINE
  5
A7C0
330
1E
100
AcDbEntity
  8
12
100
AcDbLine
 10
605.4999999999997
 20
103.8000499999992
 30
0.0
 11
605.4999999999997
 21
84.19994999999909
 31
0.0
  0
LINE
  5
A7C1
330
1E
100
AcDbEntity
  8
12
100
AcDbLine
 10
605.4999999999997
 20
84.8000499999992
 30
0.0
 11
603.0
 21
84.8000499999992
 31
0.0
  0
LINE
  5
A7C2
330
1E
100
AcDbEntity
  8
12
100
AcDbLine
 10
605.4999999999997
 20
103.199949999999
 30
0.0
 11
603.0
 21
103.199949999999
 31
0.0
  0
LINE
  5
A7C3
330
1E
100
AcDbEntity
  8
12
100
AcDbLine
 10
613.4999999999998
 20
103.8000499999992
 30
0.0
 11
605.4999999999997
 21
103.8000499999992
 31
0.0
  0
LINE
  5
A7C4
330
1E
100
AcDbEntity
  8
12
100
AcDbLine
 10
613.4999999999998
 20
103.8000499999992
 30
0.0
 11
613.4999999999998
 21
84.19994999999909
 31
0.0
  0
LINE
  5
A7C5
330
1E
100
AcDbEntity
  8
10
  6
DASHDOT
100
AcDbLine
 10
603.0
 20
105.999999999999
 30
0.0
 11
603.0
 21
78.49999999999903
 31
0.0
  0
ARC
  5
A7C6
330
1E
100
AcDbEntity
  8
10
  6
DASHDOT
100
AcDbCircle
 10
607.5
 20
78.49999999999903
 30
0.0
 40
4.5
100
AcDbArc
 50
180.0000050000005
 51
270.0000009999949
  0
LINE
  5
A7C7
330
1E
100
AcDbEntity
  8
160
  6
Continuous
 62
     3
100
AcDbLine
 10
595.3999049999997
 20
106.9999999999992
 30
0.0
 11
598.0
 21
106.9999999999992
 31
0.0
  0
LINE
  5
A7C8
330
1E
100
AcDbEntity
  8
10
  6
DASHDOT
100
AcDbLine
 10
598.0
 20
108.999999999999
 30
0.0
 11
600.0
 21
108.999999999999
 31
0.0
  0
LINE
  5
A7C9
330
1E
100
AcDbEntity
  8
12
100
AcDbLine
 10
619.0
 20
98.99999999999916
 30
0.0
 11
619.0
 21
88.99999999999916
 31
0.0
  0
LINE
  5
A7D1
330
1E
100
AcDbEntity
  8
18
  6
DIVIDE
100
AcDbLine
 10
581.3000000000004
 20
249.9999999999991
 30
0.0
 11
586.3000000000002
 21
249.9999999999991
 31
0.0
  0
DIMENSION
  5
A7D2
330
1E
100
AcDbEntity
  8
30
  6
Continuous
100
AcDbDimension
  2
*D22
 10
808.2539000000002
 20
151.499999999999
 30
0.0
 11
808.2539000000002
 21
143.999999999999
 31
0.0
 70
   160
  1
 <> 
 71
     0
 72
     0
 41
0.0
 42
15.0
  3
STANDARD1
100
AcDbAlignedDimension
 13
750.0002450000001
 23
136.4999999999989
 33
0.0
 14
750.0002450000001
 24
151.499999999999
 34
0.0
 50
90.0
100
AcDbRotatedDimension
  0
LINE
  5
A7D3
330
1E
100
AcDbEntity
  8
17
100
AcDbLine
 10
690.0002449999997
 20
158.999999999999
 30
0.0
 11
690.0002449999997
 21
128.999999999999
 31
0.0
  0
LINE
  5
A7D4
330
1E
100
AcDbEntity
  8
17
100
AcDbLine
 10
698.0002450000001
 20
158.999999999999
 30
0.0
 11
698.0002450000001
 21
128.999999999999
 31
0.0
  0
LINE
  5
A7D6
330
1E
100
AcDbEntity
  8
17
100
AcDbLine
 10
730.0002449999997
 20
158.999999999999
 30
0.0
 11
730.0002449999997
 21
128.999999999999
 31
0.0
  0
LWPOLYLINE
  5
AE7D
330
1E
100
AcDbEntity
  8
10
  6
Continuous
100
AcDbPolyline
 90
        4
 70
     1
 43
0.0
 10
-105.0
 20
200.0
 10
175.0
 20
200.0
 10
175.0
 20
-170.0
 10
-105.0
 20
-170.0
  0
LWPOLYLINE
  5
AE7E
330
1E
100
AcDbEntity
  8
10
  6
Continuous
100
AcDbPolyline
 90
        4
 70
     1
 43
0.0
 10
-39.0
 20
47.50000000000006
 10
39.0
 20
47.50000000000006
 10
39.0
 20
-47.5
 10
-39.0
 20
-47.5
  0
DIMENSION
  5
B476
330
1E
100
AcDbEntity
  8
30
  6
Continuous
100
AcDbDimension
  2
*D23
 10
698.0002450000001
 20
-239.3322434222735
 30
0.0
 11
694.0002449999997
 21
-233.3322434222734
 31
0.0
 70
    32
 71
     5
 42
8.000000000000454
  3
STANDARD1
100
AcDbAlignedDimension
 13
690.0002449999997
 23
-129.0000000000009
 33
0.0
 14
698.0002450000001
 24
-129.0000000000009
 34
0.0
100
AcDbRotatedDimension
1001
ACAD
1000
DSTYLE
1002
{
1070
   172
1070
     1
1070
   174
1070
     1
1002
}
  0
DIMENSION
  5
B484
330
1E
100
AcDbEntity
  8
30
  6
Continuous
100
AcDbDimension
  2
*D24
 10
730.0002449999997
 20
-239.345756935787
 30
0.0
 11
714.0002449999997
 21
-233.345756935787
 31
0.0
 70
    32
 71
     5
 42
31.99999999999953
  3
STANDARD1
100
AcDbAlignedDimension
 13
698.0002450000001
 23
-132.0000000000009
 33
0.0
 14
730.0002449999997
 24
-129.0000000000009
 34
0.0
100
AcDbRotatedDimension
  0
LWPOLYLINE
  5
B58A
330
1E
100
AcDbEntity
  8
10
  6
Continuous
100
AcDbPolyline
 90
       11
 70
     0
 43
0.0
 10
364.0054738200769
 20
44.04586291069676
 42
-0.2280087862796968
 10
370.8556642969132
 20
43.98718605965835
 10
406.0927200000028
 20
23.8182149999991
 10
430.1994992049404
 20
14.07844532122567
 42
0.4142135425216232
 10
435.4066607896566
 20
16.28875436337034
 10
442.2245000502933
 20
33.16349771556474
 42
0.4142135822245514
 10
440.0141908583401
 20
38.37065965320721
 10
415.9074100000011
 20
48.11042999999902
 10
376.5493803316003
 20
58.07982118250357
 42
-0.261369876899627
 10
371.5810735103686
 20
62.79613117521922
 42
2.80870652995242
 10
364.0054738200769
 20
44.04586291069676
 42
-2.80870652995242
  0
DIMENSION
  5
B58B
330
1E
100
AcDbEntity
  8
30
  6
Continuous
100
AcDbDimension
  2
*D25
 10
453.0
 20
-259.8322434222736
 30
0.0
 11
432.6999999999999
 21
-259.8322434222736
 31
0.0
 70
   160
  1
 <> 
 71
     5
 42
10.0
  3
STANDARD1
100
AcDbAlignedDimension
 13
443.0
 23
4.499999999999091
 33
0.0
 14
453.0
 24
-52.50000000000091
 34
0.0
100
AcDbRotatedDimension
1001
ACAD
1000
DSTYLE
1002
{
1070
    74
1070
     0
1070
   174
1070
     1
1002
}
  0
DIMENSION
  5
B58C
330
1E
100
AcDbEntity
  8
30
  6
Continuous
100
AcDbDimension
  2
*D26
 10
409.0
 20
-279.8322434222736
 30
0.0
 11
369.0
 21
-273.8322434222736
 31
0.0
 70
    32
  1
 <> 
 71
     5
 42
80.0
  3
STANDARD1
100
AcDbAlignedDimension
 13
329.0
 23
-2.80000000000086
 33
0.0
 14
409.0
 24
-2.80000000000086
 34
0.0
100
AcDbRotatedDimension
  0
LINE
  5
B58D
330
1E
100
AcDbEntity
  8
10
  6
Continuous
100
AcDbLine
 10
453.0
 20
-47.50000000000091
 30
0.0
 11
453.0
 21
47.49999999999909
 31
0.0
  0
LWPOLYLINE
  5
B58E
330
1E
100
AcDbEntity
  8
10
  6
Continuous
100
AcDbPolyline
 90
        4
 70
     0
 43
0.0
 10
460.0
 20
47.49999999999909
 10
444.0
 20
47.49999999999909
 10
444.0
 20
-47.50000000000091
 10
460.0
 20
-47.50000000000091
  0
LWPOLYLINE
  5
B590
330
1E
100
AcDbEntity
  8
10
  6
Continuous
100
AcDbPolyline
 90
        4
 70
     0
 43
0.0
 10
443.1299900000003
 20
16.08036999999876
 10
413.7020954115546
 20
27.97001101863134
 10
418.4970600000001
 20
39.83796499999835
 10
443.6256700000003
 20
29.68534499999941
  0
ARC
  5
B591
330
1E
100
AcDbEntity
  8
1
  6
Continuous
 62
     4
100
AcDbCircle
 10
506.5
 20
-2.800000000000864
 30
0.0
 40
177.5
100
AcDbArc
 50
161.7763989999955
 51
180.0
  0
ARC
  5
B592
330
1E
100
AcDbEntity
  8
1
  6
Continuous
 62
     4
100
AcDbCircle
 10
506.5
 20
-2.800000000000864
 30
0.0
 40
97.5
100
AcDbArc
 50
162.9956369999973
 51
180.0
  0
DIMENSION
  5
B593
330
1E
100
AcDbEntity
  8
30
  6
Continuous
100
AcDbDimension
  2
*D28
 10
580.0
 20
-239.8322434222734
 30
0.0
 11
520.0
 21
-233.8322434222734
 31
0.0
 70
    32
  1
 <> 
 71
     5
 42
120.0
  3
STANDARD1
100
AcDbAlignedDimension
 13
460.0
 23
-145.0000000000009
 33
0.0
 14
580.0
 24
-175.0000000000009
 34
0.0
100
AcDbRotatedDimension
  0
DIMENSION
  5
B594
330
1E
100
AcDbEntity
  8
30
  6
Continuous
100
AcDbDimension
  2
*D29
 10
580.0
 20
-259.8322434222736
 30
0.0
 11
516.5
 21
-253.8322434222734
 31
0.0
 70
    32
  1
 <> 
 71
     5
 42
127.0
  3
STANDARD1
100
AcDbAlignedDimension
 13
453.0
 23
-52.50000000000091
 33
0.0
 14
580.0
 24
-175.0000000000009
 34
0.0
100
AcDbRotatedDimension
  0
DIMENSION
  5
B595
330
1E
100
AcDbEntity
  8
30
  6
Continuous
100
AcDbDimension
  2
*D30
 10
580.0
 20
-279.8322434222736
 30
0.0
 11
494.5
 21
-273.8322434222736
 31
0.0
 70
    32
  1
 <> 
 71
     5
 42
171.0
  3
STANDARD1
100
AcDbAlignedDimension
 13
409.0
 23
-7.800000000000862
 33
0.0
 14
580.0
 24
-170.0000000000009
 34
0.0
100
AcDbRotatedDimension
  0
LWPOLYLINE
  5
B616
330
1E
100
AcDbEntity
  8
10
  6
Continuous
100
AcDbPolyline
 90
        9
 70
     0
 43
0.0
 10
580.0
 20
199.999999999999
 10
468.0
 20
199.999999999999
 10
468.0
 20
169.999999999999
 10
460.0
 20
169.999999999999
 10
460.0
 20
-140.0000000000009
 10
468.0
 20
-140.0000000000009
 10
468.0
 20
-170.0000000000009
 10
580.0
 20
-170.0000000000009
 10
580.0
 20
199.999999999999
  0
LWPOLYLINE
  5
B618
330
1E
100
AcDbEntity
  8
10
  6
Continuous
100
AcDbPolyline
 90
       12
 70
     0
 43
0.0
 10
580.0
 20
198.9999999999987
 10
623.0
 20
198.9999999999987
 10
623.0
 20
172.9999999999987
 10
660.0
 20
172.9999999999987
 10
660.0
 20
114.9999999999991
 10
598.0
 20
114.9999999999991
 10
598.0
 20
-85.0000000000009
 10
660.0
 20
-85.0000000000009
 10
660.0
 20
-143.0000000000003
 10
623.0
 20
-143.0000000000003
 10
623.0
 20
-169.0000000000009
 10
579.9999999999994
 20
-169.0000000000009
  0
SPLINE
  5
B8F0
330
1E
100
AcDbEntity
  8
18
100
AcDbSpline
210
0.0
220
0.0
230
1.0
 70
     8
 71
     3
 72
    12
 73
     8
 74
     0
 42
0.0000000001
 43
0.0000000001
 40
0.0
 40
0.0
 40
0.0
 40
0.0
 40
0.2
 40
0.4
 40
0.6000000000000001
 40
0.8
 40
1.0
 40
1.0
 40
1.0
 40
1.0
 10
199.7143551870465
 20
467.9999987028677
 30
0.0
 10
199.674316124546
 20
469.0136705778678
 30
0.0
 10
199.5942379995465
 20
471.041258468498
 30
0.0
 10
189.1757809682965
 20
485.8344713591177
 30
0.0
 10
199.1782223745465
 20
492.7441393278678
 30
0.0
 10
192.1147458120465
 20
499.1223131559975
 30
0.0
 10
196.7734372182965
 20
505.040770187248
 30
0.0
 10
199.1025387807964
 20
507.999998702868
 30
0.0
  0
SPLINE
  5
B8F1
330
1E
100
AcDbEntity
  8
18
100
AcDbSpline
210
0.0
220
0.0
230
1.0
 70
     8
 71
     3
 72
    12
 73
     8
 74
     0
 42
0.0000000001
 43
0.0000000001
 40
0.0
 40
0.0
 40
0.0
 40
0.0
 40
0.2
 40
0.4
 40
0.6000000000000001
 40
0.8
 40
1.0
 40
1.0
 40
1.0
 40
1.0
 10
-133.7650149301434
 20
467.9999987028677
 30
0.0
 10
-133.6087649301434
 20
469.0915514372476
 30
0.0
 10
-133.2962649301433
 20
471.2749010466176
 30
0.0
 10
-124.6224368051435
 20
484.9003893278676
 30
0.0
 10
-135.3748782113936
 20
488.7380358122476
 30
0.0
 10
-127.3211672738934
 20
501.0624987028676
 30
0.0
 10
-131.6170657113935
 20
505.6874987028677
 30
0.0
 10
-133.7650149301434
 20
507.999998702868
 30
0.0
  0
LINE
  5
B8F3
330
1E
100
AcDbEntity
  8
16
100
AcDbLine
 10
0.0
 20
263.9999999999998
 30
0.0
 11
0.0
 21
614.9999999999997
 31
0.0
  0
LWPOLYLINE
  5
B8F4
330
1E
100
AcDbEntity
  8
10
  6
Continuous
100
AcDbPolyline
 90
        4
 70
     1
 43
0.0
 10
-104.99988
 20
329.9999999999998
 10
175.0
 20
329.9999999999998
 10
175.0
 20
529.9999999999998
 10
-104.99988
 20
529.9999999999998
  0
LINE
  5
B8F5
330
1E
100
AcDbEntity
  8
18
100
AcDbLine
 10
-133.7650149999998
 20
468.0
 30
0.0
 11
175.0
 21
468.0
 31
0.0
  0
LINE
  5
B8F6
330
1E
100
AcDbEntity
  8
18
100
AcDbLine
 10
-131.9287099999995
 20
473.0
 30
0.0
 11
175.0
 21
473.0
 31
0.0
  0
LWPOLYLINE
  5
B8F7
330
1E
100
AcDbEntity
  8
10
  6
Continuous
100
AcDbPolyline
 90
        4
 70
     0
 43
0.0
 10
-19.99993999999986
 20
318.9999999999999
 10
-19.99993999999962
 20
278.9999999999998
 10
20.00006000000012
 20
278.9999999999998
 10
20.00005999999989
 20
318.9999999999999
  0
LWPOLYLINE
  5
B8F9
330
1E
100
AcDbEntity
  8
10
  6
Continuous
100
AcDbPolyline
 90
        4
 70
     0
 43
0.0
 10
-38.99994000000007
 20
323.0
 10
-38.99994000000007
 20
318.9999999999999
 10
39.0000599999999
 20
318.9999999999999
 10
39.0000599999999
 20
323.0
  0
LINE
  5
B8FB
330
1E
100
AcDbEntity
  8
10
  6
Continuous
100
AcDbLine
 10
-104.99988
 20
449.9999999999998
 30
0.0
 11
175.0
 21
449.9999999999998
 31
0.0
  0
LINE
  5
B8FC
330
1E
100
AcDbEntity
  8
10
  6
Continuous
100
AcDbLine
 10
-104.99988
 20
338.0
 30
0.0
 11
175.0
 21
338.0
 31
0.0
  0
LWPOLYLINE
  5
B8FD
330
1E
100
AcDbEntity
  8
10
  6
Continuous
100
AcDbPolyline
 90
        4
 70
     0
 43
0.0
 10
-95.00970500000008
 20
329.9999999999998
 10
-95.00970500000008
 20
323.0
 10
94.9902949999999
 20
323.0
 10
94.9902949999999
 20
329.9999999999998
  0
LINE
  5
B90A
330
1E
100
AcDbEntity
  8
18
100
AcDbLine
 10
175.0
 20
468.0
 30
0.0
 11
199.7143549999998
 21
468.0
 31
0.0
  0
LINE
  5
B90B
330
1E
100
AcDbEntity
  8
18
100
AcDbLine
 10
175.0
 20
473.0
 30
0.0
 11
197.8777899999997
 21
473.0
 31
0.0
  0
LWPOLYLINE
  5
B90C
330
1E
100
AcDbEntity
  8
21
  6
Continuous
100
AcDbPolyline
 90
        4
 70
     0
 43
0.0
 10
-22.49508749999989
 20
530.4999999999997
 10
-22.49508749999989
 20
615.4999999999997
 10
22.50491250000009
 20
615.4999999999997
 10
22.50491250000009
 20
530.4999999999997
  0
LINE
  5
B90D
330
1E
100
AcDbEntity
  8
18
100
AcDbLine
 10
-133.7650149999998
 20
508.0
 30
0.0
 11
175.0
 21
508.0
 31
0.0
  0
DIMENSION
  5
B90E
330
1E
100
AcDbEntity
  8
30
100
AcDbDimension
  2
*D31
 10
70.0
 20
652.095875
 30
0.0
 11
35.0
 21
658.0958749999997
 31
0.0
 70
    32
  1
 <> 
 71
     5
 42
70.0
  3
STANDARD1
100
AcDbAlignedDimension
 13
0.0
 23
604.9999999999998
 33
0.0
 14
70.0
 24
604.9999999999998
 34
0.0
100
AcDbRotatedDimension
  0
LWPOLYLINE
  5
B90F
330
1E
100
AcDbEntity
  8
21
  6
Continuous
100
AcDbPolyline
 90
        4
 70
     0
 43
0.0
 10
-92.49508749999987
 20
529.9999999999998
 10
-92.49508749999987
 20
614.9999999999997
 10
-47.49508749999988
 20
614.9999999999997
 10
-47.49508749999988
 20
529.9999999999998
  0
CIRCLE
  5
B910
330
1E
100
AcDbEntity
  8
17
  6
DASHDOT
100
AcDbCircle
 10
-69.99508750000011
 20
599.9999999999998
 30
0.0
 40
6.5
  0
CIRCLE
  5
B911
330
1E
100
AcDbEntity
  8
17
  6
DASHDOT
100
AcDbCircle
 10
0.0049124999998753
 20
600.4999999999998
 30
0.0
 40
6.5
  0
DIMENSION
  5
B912
330
1E
100
AcDbEntity
  8
30
100
AcDbDimension
  2
*D32
 10
0.0000600000001356
 20
652.095875
 30
0.0
 11
-34.99993999999986
 21
658.0958749999997
 31
0.0
 70
    32
  1
 <> 
 71
     5
 42
70.0
  3
STANDARD1
100
AcDbAlignedDimension
 13
-69.99993999999985
 23
642.0
 33
0.0
 14
0.0000600000001327
 24
604.9999999999998
 34
0.0
100
AcDbRotatedDimension
  0
LINE
  5
B913
330
1E
100
AcDbEntity
  8
17
  6
DASHDOT
100
AcDbLine
 10
-84.99508750000012
 20
599.9999999999998
 30
0.0
 11
-54.99508750000011
 21
599.9999999999998
 31
0.0
  0
LINE
  5
B914
330
1E
100
AcDbEntity
  8
17
  6
DASHDOT
100
AcDbLine
 10
-84.99508750000012
 20
568.0
 30
0.0
 11
-54.99508750000011
 21
568.0
 31
0.0
  0
LINE
  5
B915
330
1E
100
AcDbEntity
  8
17
  6
DASHDOT
100
AcDbLine
 10
-84.99508750000012
 20
559.9999999999996
 30
0.0
 11
-54.99508750000011
 21
559.9999999999996
 31
0.0
  0
LINE
  5
B916
330
1E
100
AcDbEntity
  8
17
  6
DASHDOT
100
AcDbLine
 10
-63.49508750000012
 20
559.9999999999996
 30
0.0
 11
-63.49508750000012
 21
568.0
 31
0.0
  0
LINE
  5
B917
330
1E
100
AcDbEntity
  8
17
  6
DASHDOT
100
AcDbLine
 10
-76.49508750000013
 20
559.9999999999996
 30
0.0
 11
-76.49508750000013
 21
568.0
 31
0.0
  0
ARC
  5
B918
330
1E
100
AcDbEntity
  8
17
  6
DASHDOT
100
AcDbCircle
 10
-69.99508750000011
 20
568.0
 30
0.0
 40
6.5
100
AcDbArc
 50
359.999989999999
 51
179.9999949999993
  0
ARC
  5
B919
330
1E
100
AcDbEntity
  8
17
  6
DASHDOT
100
AcDbCircle
 10
-69.99508750000011
 20
559.9999999999996
 30
0.0
 40
6.5
100
AcDbArc
 50
179.9999949999993
 51
0.0
  0
LINE
  5
B91A
330
1E
100
AcDbEntity
  8
17
  6
DASHDOT
100
AcDbLine
 10
-14.99508750000011
 20
560.4999999999996
 30
0.0
 11
15.00491249999986
 21
560.4999999999996
 31
0.0
  0
LINE
  5
B91B
330
1E
100
AcDbEntity
  8
17
  6
DASHDOT
100
AcDbLine
 10
-14.99508750000011
 20
568.5
 30
0.0
 11
15.00491249999986
 21
568.5
 31
0.0
  0
ARC
  5
B91C
330
1E
100
AcDbEntity
  8
17
  6
DASHDOT
100
AcDbCircle
 10
0.0049124999998753
 20
568.5
 30
0.0
 40
6.5
100
AcDbArc
 50
359.999989999999
 51
179.9999949999993
  0
ARC
  5
B91D
330
1E
100
AcDbEntity
  8
17
  6
DASHDOT
100
AcDbCircle
 10
0.0049124999998753
 20
560.4999999999996
 30
0.0
 40
6.5
100
AcDbArc
 50
179.9999949999993
 51
0.0
  0
LINE
  5
B91E
330
1E
100
AcDbEntity
  8
17
  6
DASHDOT
100
AcDbLine
 10
-6.495087500000122
 20
560.4999999999996
 30
0.0
 11
-6.495087500000122
 21
568.5
 31
0.0
  0
LINE
  5
B91F
330
1E
100
AcDbEntity
  8
17
  6
DASHDOT
100
AcDbLine
 10
6.504912499999872
 20
560.4999999999996
 30
0.0
 11
6.504912499999872
 21
568.5
 31
0.0
  0
LINE
  5
B920
330
1E
100
AcDbEntity
  8
17
  6
DASHDOT
100
AcDbLine
 10
-14.99508750000011
 20
600.4999999999998
 30
0.0
 11
15.00491249999986
 21
600.4999999999998
 31
0.0
  0
DIMENSION
  5
B921
330
1E
100
AcDbEntity
  8
30
100
AcDbDimension
  2
*D33
 10
-47.49993999999984
 20
629.5958749999997
 30
0.0
 11
-69.99993999999985
 21
635.5958749999999
 31
0.0
 70
    32
  1
 <> 
 71
     5
 42
45.0
  3
STANDARD1
100
AcDbAlignedDimension
 13
-92.49993999999986
 23
619.9999999999997
 33
0.0
 14
-47.49993999999984
 24
619.9999999999997
 34
0.0
100
AcDbRotatedDimension
  0
CIRCLE
  5
B922
330
1E
100
AcDbEntity
  8
17
  6
DASHDOT
100
AcDbCircle
 10
140.0049124999997
 20
599.9999999999998
 30
0.0
 40
6.5
  0
LWPOLYLINE
  5
B923
330
1E
100
AcDbEntity
  8
21
  6
Continuous
100
AcDbPolyline
 90
        4
 70
     0
 43
0.0
 10
117.5049125
 20
529.9999999999998
 10
117.5049125
 20
614.9999999999997
 10
162.5049124999998
 20
614.9999999999997
 10
162.5049124999998
 20
529.9999999999998
  0
DIMENSION
  5
B924
330
1E
100
AcDbEntity
  8
30
100
AcDbDimension
  2
*D34
 10
134.0501473622597
 20
597.3940889972332
 30
0.0
 11
175.0050325000009
 21
610.9404966059152
 31
0.0
 70
   163
 71
     5
 42
12.99999999999897
  3
STANDARD1
100
AcDbDiametricDimension
 15
145.9596776377415
 25
602.6059110027659
 35
0.0
 40
0.0
  0
LWPOLYLINE
  5
B926
330
1E
100
AcDbEntity
  8
21
  6
Continuous
100
AcDbPolyline
 90
        4
 70
     0
 43
0.0
 10
47.50491250000009
 20
529.9999999999998
 10
47.50491250000009
 20
614.9999999999997
 10
92.50491250000013
 20
614.9999999999997
 10
92.50491250000013
 20
529.9999999999998
  0
CIRCLE
  5
B927
330
1E
100
AcDbEntity
  8
17
  6
DASHDOT
100
AcDbCircle
 10
70.00491249999988
 20
599.9999999999998
 30
0.0
 40
6.5
  0
DIMENSION
  5
B928
330
1E
100
AcDbEntity
  8
30
100
AcDbDimension
  2
*D35
 10
140.0
 20
652.095875
 30
0.0
 11
105.0
 21
658.0958749999997
 31
0.0
 70
    32
  1
 <> 
 71
     5
 42
70.0
  3
STANDARD1
100
AcDbAlignedDimension
 13
70.0
 23
604.9999999999998
 33
0.0
 14
140.0
 24
604.9999999999998
 34
0.0
100
AcDbRotatedDimension
  0
LINE
  5
B929
330
1E
100
AcDbEntity
  8
17
  6
DASHDOT
100
AcDbLine
 10
55.00491249999988
 20
559.9999999999996
 30
0.0
 11
85.00491249999987
 21
559.9999999999996
 31
0.0
  0
LINE
  5
B92A
330
1E
100
AcDbEntity
  8
17
  6
DASHDOT
100
AcDbLine
 10
55.00491249999988
 20
568.0
 30
0.0
 11
85.00491249999987
 21
568.0
 31
0.0
  0
LINE
  5
B92B
330
1E
100
AcDbEntity
  8
17
  6
DASHDOT
100
AcDbLine
 10
55.00491249999988
 20
599.9999999999998
 30
0.0
 11
85.00491249999987
 21
599.9999999999998
 31
0.0
  0
ARC
  5
B92C
330
1E
100
AcDbEntity
  8
17
  6
DASHDOT
100
AcDbCircle
 10
70.00491249999988
 20
568.0
 30
0.0
 40
6.5
100
AcDbArc
 50
359.999989999999
 51
179.9999949999993
  0
ARC
  5
B92D
330
1E
100
AcDbEntity
  8
17
  6
DASHDOT
100
AcDbCircle
 10
70.00491249999988
 20
559.9999999999996
 30
0.0
 40
6.5
100
AcDbArc
 50
179.9999949999993
 51
0.0
  0
LINE
  5
B92F
330
1E
100
AcDbEntity
  8
17
  6
DASHDOT
100
AcDbLine
 10
63.50491249999985
 20
559.9999999999996
 30
0.0
 11
63.50491249999985
 21
568.0
 31
0.0
  0
LINE
  5
B930
330
1E
100
AcDbEntity
  8
17
  6
DASHDOT
100
AcDbLine
 10
76.50491249999987
 20
559.9999999999996
 30
0.0
 11
76.50491249999987
 21
568.0
 31
0.0
  0
LINE
  5
B931
330
1E
100
AcDbEntity
  8
18
100
AcDbLine
 10
175.0
 20
508.0
 30
0.0
 11
199.10254
 21
508.0
 31
0.0
  0
LINE
  5
B933
330
1E
100
AcDbEntity
  8
17
  6
DASHDOT
100
AcDbLine
 10
146.5049124999998
 20
559.9999999999996
 30
0.0
 11
146.5049124999998
 21
568.0
 31
0.0
  0
LINE
  5
B934
330
1E
100
AcDbEntity
  8
17
  6
DASHDOT
100
AcDbLine
 10
133.5049124999997
 20
559.9999999999996
 30
0.0
 11
133.5049124999997
 21
568.0
 31
0.0
  0
DIMENSION
  5
B935
330
1E
100
AcDbEntity
  8
30
100
AcDbDimension
  2
*D36
 10
146.5049124999999
 20
577.5
 30
0.0
 11
140.0049124999999
 21
577.5
 31
0.0
 70
   160
  1
<> 
 71
     5
 42
13.0
  3
STANDARD1
100
AcDbAlignedDimension
 13
133.5049124999999
 23
559.0
 33
0.0
 14
146.5049124999999
 24
559.0
 34
0.0
100
AcDbRotatedDimension
  0
ARC
  5
B936
330
1E
100
AcDbEntity
  8
17
  6
DASHDOT
100
AcDbCircle
 10
140.0049124999997
 20
559.9999999999996
 30
0.0
 40
6.5
100
AcDbArc
 50
179.9999949999993
 51
0.0
  0
ARC
  5
B937
330
1E
100
AcDbEntity
  8
17
  6
DASHDOT
100
AcDbCircle
 10
140.0049124999997
 20
568.0
 30
0.0
 40
6.5
100
AcDbArc
 50
359.999989999999
 51
179.9999949999993
  0
LINE
  5
B938
330
1E
100
AcDbEntity
  8
17
  6
DASHDOT
100
AcDbLine
 10
125.0049124999996
 20
599.9999999999998
 30
0.0
 11
155.0049124999997
 21
599.9999999999998
 31
0.0
  0
LINE
  5
B939
330
1E
100
AcDbEntity
  8
17
  6
DASHDOT
100
AcDbLine
 10
125.0049124999996
 20
568.0
 30
0.0
 11
155.0049124999997
 21
568.0
 31
0.0
  0
LINE
  5
B93A
330
1E
100
AcDbEntity
  8
17
  6
DASHDOT
100
AcDbLine
 10
125.0049124999996
 20
559.9999999999996
 30
0.0
 11
155.0049124999997
 21
559.9999999999996
 31
0.0
  0
LWPOLYLINE
  5
BA47
330
1E
100
AcDbEntity
  8
21
  6
Continuous
100
AcDbPolyline
 90
        4
 70
     0
 43
0.0
 10
660.0
 20
136.4999999999989
 10
745.0002449999997
 20
136.4999999999989
 10
745.0002449999997
 20
151.499999999999
 10
660.0
 20
151.499999999999
  0
LINE
  5
BA51
330
1E
100
AcDbEntity
  8
17
100
AcDbLine
 10
730.0002449999997
 20
-99.00000000000083
 30
0.0
 11
730.0002449999997
 21
-129.0000000000008
 31
0.0
  0
LINE
  5
BA52
330
1E
100
AcDbEntity
  8
17
100
AcDbLine
 10
698.0002450000001
 20
-99.00000000000083
 30
0.0
 11
698.0002450000001
 21
-129.0000000000008
 31
0.0
  0
LINE
  5
BA53
330
1E
100
AcDbEntity
  8
17
100
AcDbLine
 10
690.0002449999997
 20
-99.00000000000083
 30
0.0
 11
690.0002449999997
 21
-129.0000000000008
 31
0.0
  0
LINE
  5
BA54
330
1E
100
AcDbEntity
  8
17
100
AcDbLine
 10
630.0
 20
-114.0000000000007
 30
0.0
 11
759.0476699999997
 21
-114.0000000000007
 31
0.0
  0
LWPOLYLINE
  5
BA55
330
1E
100
AcDbEntity
  8
21
  6
Continuous
100
AcDbPolyline
 90
        4
 70
     0
 43
0.0
 10
660.0
 20
-121.5000000000008
 10
745.0002449999997
 20
-121.5000000000008
 10
745.0002449999997
 20
-106.5000000000007
 10
660.0
 20
-106.5000000000007
  0
DIMENSION
  5
BA57
330
1E
100
AcDbEntity
  8
30
  6
Continuous
100
AcDbDimension
  2
*D37
 10
598.0
 20
-239.3322434222735
 30
0.0
 11
589.0
 21
-233.3322434222734
 31
0.0
 70
    32
 71
     5
 42
18.0
  3
STANDARD1
100
AcDbAlignedDimension
 13
580.0
 23
-170.0000000000009
 33
0.0
 14
598.0
 24
-169.0000000000009
 34
0.0
100
AcDbRotatedDimension
  0
DIMENSION
  5
BB20
330
1E
100
AcDbEntity
  8
30
  6
Continuous
100
AcDbDimension
  2
*D38
 10
556.5
 20
-710.0
 30
0.0
 11
460.0
 21
-704.0
 31
0.0
 70
    32
  1
 <> 
 71
     5
 42
193.0
  3
STANDARD1
100
AcDbAlignedDimension
 13
363.5
 23
-545.9999999999999
 33
0.0
 14
556.5
 24
-545.9999999999991
 34
0.0
100
AcDbRotatedDimension
  0
LWPOLYLINE
  5
BB21
330
1E
100
AcDbEntity
  8
11
 48
2.0
100
AcDbPolyline
 90
        8
 70
     1
 43
0.0
 10
366.5
 20
-450.9999999999991
 10
553.5
 20
-450.999999999999
 42
-0.4142135623730951
 10
556.5
 20
-453.9999999999991
 10
556.5
 20
-545.9999999999991
 42
-0.4142135623730951
 10
553.5
 20
-548.9999999999992
 10
366.5
 20
-548.9999999999992
 42
-0.4142135623730951
 10
363.5
 20
-545.9999999999991
 10
363.5
 20
-453.9999999999991
 42
-0.4142135623730951
  0
LWPOLYLINE
  5
BB22
330
1E
100
AcDbEntity
  8
18
  6
DIVIDE
100
AcDbPolyline
 90
        4
 70
     1
 43
0.0
 10
355.0
 20
-300.0
 10
635.0
 20
-300.0
 10
635.0
 20
-670.0
 10
355.0
 20
-670.0
  0
LWPOLYLINE
  5
BB23
330
1E
100
AcDbEntity
  8
18
  6
DIVIDE
100
AcDbPolyline
 90
        4
 70
     1
 43
0.0
 10
355.0
 20
-300.0
 10
635.0
 20
-300.0
 10
635.0
 20
-670.0
 10
355.0
 20
-670.0
  0
LINE
  5
BB24
330
1E
100
AcDbEntity
  8
16
100
AcDbLine
 10
645.0
 20
-500.0
 30
0.0
 11
345.0
 21
-500.0
 31
0.0
  0
LINE
  5
BB25
330
1E
100
AcDbEntity
  8
18
  6
DIVIDE
100
AcDbLine
 10
635.0
 20
-300.0
 30
0.0
 11
355.0
 21
-300.0
 31
0.0
  0
LINE
  5
BB2C
330
1E
100
AcDbEntity
  8
16
100
AcDbLine
 10
-145.0
 20
-501.0
 30
0.0
 11
185.0
 21
-501.0
 31
0.0
  0
LINE
  5
BB2D
330
1E
100
AcDbEntity
  8
16
100
AcDbLine
 10
185.0
 20
-501.0
 30
0.0
 11
-115.0
 21
-501.0
 31
0.0
  0
LINE
  5
BB36
330
1E
100
AcDbEntity
  8
16
100
AcDbLine
 10
0.0
 20
-681.0
 30
0.0
 11
0.0
 21
-291.0
 31
0.0
  0
DIMENSION
  5
BB38
330
1E
100
AcDbEntity
  8
30
  6
Continuous
100
AcDbDimension
  2
*D39
 10
335.0
 20
-548.9999999999996
 30
0.0
 11
329.0
 21
-499.9999999999992
 31
0.0
 70
    32
 71
     5
 42
98.00000000000052
  3
STANDARD1
100
AcDbAlignedDimension
 13
363.5
 23
-450.9999999999991
 33
0.0
 14
363.5
 24
-548.9999999999996
 34
0.0
 50
90.0
100
AcDbRotatedDimension
  0
LINE
  5
BB39
330
1E
100
AcDbEntity
  8
16
100
AcDbLine
 10
460.0
 20
-680.0
 30
0.0
 11
460.0
 21
-290.0
 31
0.0
  0
LINE
  5
BB3A
330
1E
100
AcDbEntity
  8
18
  6
DIVIDE
100
AcDbLine
 10
355.0
 20
-300.0
 30
0.0
 11
355.0
 21
-670.0
 31
0.0
  0
LINE
  5
BB3B
330
1E
100
AcDbEntity
  8
16
100
AcDbLine
 10
0.0
 20
-681.0
 30
0.0
 11
0.0
 21
-291.0
 31
0.0
  0
DIMENSION
  5
BB4D
330
1E
100
AcDbEntity
  8
30
  6
Continuous
100
AcDbDimension
  2
*D41
 10
366.4100000000001
 20
-453.9999999999998
 30
0.0
 11
371.9968486915056
 21
-440.9634736719374
 31
0.0
 70
   164
 71
     5
 42
2.999999999999886
  3
STANDARD1
100
AcDbRadialDimension
 15
365.8639554236986
 25
-451.0501126596611
 35
0.0
 40
0.0
  0
LWPOLYLINE
  5
C6F3
330
1E
100
AcDbEntity
  8
10
  6
Continuous
100
AcDbPolyline
 90
        6
 70
     1
 43
0.0
 10
605.0
 20
45.49999999999914
 10
605.0
 20
55.49999999999915
 10
598.0
 20
55.49999999999915
 10
598.0
 20
22.49999999999908
 10
618.0
 20
22.49999999999908
 10
618.0
 20
45.49999999999914
  0
LWPOLYLINE
  5
C6F9
330
1E
100
AcDbEntity
  8
10
  6
Continuous
100
AcDbPolyline
 90
        6
 70
     1
 43
0.0
 10
618.0
 20
-15.50000000000073
 10
605.0
 20
-15.50000000000073
 10
605.0
 20
-25.50000000000073
 10
598.0
 20
-25.50000000000073
 10
598.0
 20
7.499999999999093
 10
618.0
 20
7.499999999999093
  0
MTEXT
  5
C886
330
1E
100
AcDbEntity
  8
19
  6
Continuous
100
AcDbMText
 10
466.5104680939673
 20
350.753776640948
 30
0.0
 40
8.0
 41
131.2564
 71
     1
 72
     5
  1
S1250-SE 4P PM\PS1250-NE 4P PM\PS1250-GE 4P PM\PS1250-NN 4P PM
  7
STANDARD1
 73
     1
 44
1.0
  0
CIRCLE
  5
C99F
330
1E
100
AcDbEntity
  8
10
  6
Continuous
100
AcDbCircle
 10
31.19999999999981
 20
-70.49999999999982
 30
0.0
 40
3.299999999999998
  0
LWPOLYLINE
  5
C9A0
330
1E
100
AcDbEntity
  8
10
  6
Continuous
100
AcDbPolyline
 90
        4
 70
     1
 43
0.0
 10
27.19999999999981
 20
-33.49999999999994
 10
33.20000000000003
 20
-33.49999999999994
 10
33.20000000000003
 20
-41.50000000000003
 10
27.19999999999981
 20
-41.50000000000003
  0
VIEWPORT
  5
9AC
330
1A
100
AcDbEntity
 67
     1
  8
0
  6
Continuous
100
AcDbViewport
 10
171.9995348790992
 20
144.1384735538403
 30
0.0
 40
488.8676857773511
 41
292.3514905034161
 68
     1
 69
     1
 12
171.9995348790992
 22
144.1384735538403
 13
0.0
 23
0.0
 14
10.0
 24
10.0
 15
10.0
 25
10.0
 16
0.0
 26
0.0
 36
1.0
 17
0.0
 27
0.0
 37
0.0
 42
50.0
 43
0.0
 44
0.0
 45
292.3514905034161
 50
0.0
 51
0.0
 72
   100
 90
    32800
  1

281
     0
 71
     1
 74
     0
110
0.0
120
0.0
130
0.0
111
1.0
121
0.0
131
0.0
112
0.0
122
1.0
132
0.0
 79
     0
146
0.0
  0
ENDSEC
  0
SECTION
  2
OBJECTS
  0
DICTIONARY
  5
C
330
0
100
AcDbDictionary
281
     1
  3
ACAD_GROUP
350
D
  3
ACAD_LAYOUT
350
19
  3
ACAD_MLINESTYLE
350
16
  3
ACAD_PLOTSETTINGS
350
18
  3
ACAD_PLOTSTYLENAME
350
E
  3
ACDBHEADERROUNDTRIPXREC
350
D1B6
  3
ACDBVARIABLEDICTIONARY
350
69C9
  0
DICTIONARY
  5
178
330
1E
100
AcDbDictionary
280
     1
281
     1
  3
ACAD_LAYOUTSELFREF
360
8B0B
  0
DICTIONARY
  5
17A
330
1A
100
AcDbDictionary
280
     1
281
     1
  3
ACAD_LAYOUTSELFREF
360
8B0A
  0
DICTIONARY
  5
D
102
{ACAD_REACTORS
330
C
102
}
330
C
100
AcDbDictionary
281
     1
  0
DICTIONARY
  5
19
102
{ACAD_REACTORS
330
C
102
}
330
C
100
AcDbDictionary
281
     1
  3
Model
350
8B11
  3
ﾚｲｱｳﾄ1
350
8B12
  0
DICTIONARY
  5
16
102
{ACAD_REACTORS
330
C
102
}
330
C
100
AcDbDictionary
281
     1
  3
STANDARD
350
17
  0
DICTIONARY
  5
18
102
{ACAD_REACTORS
330
C
102
}
330
C
100
AcDbDictionary
281
     1
  0
ACDBDICTIONARYWDFLT
  5
E
102
{ACAD_REACTORS
330
C
102
}
330
C
100
AcDbDictionary
281
     1
  3
Normal
350
F
100
AcDbDictionaryWithDefault
340
F
  0
DICTIONARY
  5
D1B6
102
{ACAD_REACTORS
330
C
102
}
330
C
100
AcDbDictionary
281
     1
  3
CEPSNTYPE
350
D1C0
  3
DIMSTYLEDATA
350
D1C4
  3
FINGERPRINTGUID
350
D1C1
  3
HYPERLINKBASE
350
D1B9
  3
INSUNITS
350
D1BF
  3
LAYOUTDICT
350
D1BB
  3
LWETCUNION
350
D1BE
  3
PLOTSETDICT
350
D1BC
  3
PLOTSTYLNAMDICT
350
D1BD
  3
PSVPSCALE
350
D1C3
  3
PUCSBASE
350
D1C7
  3
PUCSORGBACK
350
D1CD
  3
PUCSORGBOTTOM
350
D1C9
  3
PUCSORGFRONT
350
D1CC
  3
PUCSORGLEFT
350
D1CA
  3
PUCSORGRIGHT
350
D1CB
  3
PUCSORGTOP
350
D1C8
  3
PUCSORTHOREF
350
D1C5
  3
PUCSORTHOVIEW
350
D1C6
  3
STYLESHEET
350
D1BA
  3
TSTACKALIGN
350
D1B7
  3
TSTACKSIZE
350
D1B8
  3
UCSBASE
350
D1D0
  3
UCSORGBACK
350
D1D6
  3
UCSORGBOTTOM
350
D1D2
  3
UCSORGFRONT
350
D1D5
  3
UCSORGLEFT
350
D1D3
  3
UCSORGRIGHT
350
D1D4
  3
UCSORGTOP
350
D1D1
  3
UCSORTHOREF
350
D1CE
  3
UCSORTHOVIEW
350
D1CF
  3
VERSIONGUID
350
D1C2
  0
DICTIONARY
  5
69C9
102
{ACAD_REACTORS
330
C
102
}
330
C
100
AcDbDictionary
281
     1
  3
DIMASSOC
350
69CA
  0
XRECORD
  5
8B0B
102
{ACAD_REACTORS
330
178
102
}
330
178
100
AcDbXrecord
280
     1
340
1E
  0
XRECORD
  5
8B0A
102
{ACAD_REACTORS
330
17A
102
}
330
17A
100
AcDbXrecord
280
     1
340
1A
  0
LAYOUT
  5
8B11
102
{ACAD_REACTORS
330
19
102
}
330
19
100
AcDbPlotSettings
  1

  2
DocuWorks Printer
  4
A4
  6
OLE1
 40
5.408083438873291
 41
5.408078670501708
 42
5.408096313476561
 43
5.4080810546875
 44
210.015670776367
 45
297.0106506347656
 46
-0.95
 47
3.52
 48
0.0
 49
0.0
140
0.0
141
0.0
142
1.0
143
5.0
 70
 11940
 72
     1
 73
     0
 74
     1
  7
monochrome.ctb
 75
     0
147
0.2
148
167.9644890806694
149
734.6652786054942
100
AcDbLayout
  1
Model
 70
     1
 71
     0
 10
0.0
 20
0.0
 11
12.0
 21
9.0
 12
0.0
 22
0.0
 32
0.0
 14
0.0
 24
0.0
 34
0.0
 15
0.0
 25
0.0
 35
0.0
146
0.0
 13
0.0
 23
0.0
 33
0.0
 16
1.0
 26
0.0
 36
0.0
 17
0.0
 27
1.0
 37
0.0
 76
     0
330
1E
  0
LAYOUT
  5
8B12
102
{ACAD_REACTORS
330
19
102
}
330
19
100
AcDbPlotSettings
  1

  2
LBP5400
  4

  6

 40
0.0
 41
0.0
 42
0.0
 43
0.0
 44
0.0
 45
0.0
 46
0.0
 47
0.0
 48
0.0
 49
0.0
140
0.0
141
0.0
142
1.0
143
1.0
 70
   688
 72
     0
 73
     0
 74
     5
  7
monochrome.stb
 75
    16
147
1.0
148
0.0
149
0.0
100
AcDbLayout
  1
ﾚｲｱｳﾄ1
 70
     1
 71
     1
 10
-5.873748779296875
 20
-5.873749732971191
 11
204.0995788574218
 21
291.1369009017943
 12
0.0
 22
0.0
 32
0.0
 14
4.273573370203961
 24
5.205246163471485
 34
0.0
 15
194.6100952986349
 25
283.0697008572913
 35
0.0
146
0.0
 13
0.0
 23
0.0
 33
0.0
 16
1.0
 26
0.0
 36
0.0
 17
0.0
 27
1.0
 37
0.0
 76
     0
330
1A
331
9AC
  0
MLINESTYLE
  5
17
102
{ACAD_REACTORS
330
16
102
}
330
16
100
AcDbMlineStyle
  2
STANDARD
 70
     0
  3

 62
   256
 51
90.0
 52
90.0
 71
     2
 49
0.5
 62
   256
  6
BYLAYER
 49
-0.5
 62
   256
  6
BYLAYER
  0
ACDBPLACEHOLDER
  5
F
102
{ACAD_REACTORS
330
E
102
}
330
E
  0
XRECORD
  5
D1C0
102
{ACAD_REACTORS
330
D1B6
102
}
330
D1B6
100
AcDbXrecord
280
     1
 90
        0
  0
XRECORD
  5
D1C4
102
{ACAD_REACTORS
330
D1B6
102
}
330
D1B6
100
AcDbXrecord
280
     1
1000
DSTYLE
1002
{
1070
   289
 70
     2
1070
   341
340
3B2
1070
   342
340
3B2
1002
}
  0
XRECORD
  5
D1C1
102
{ACAD_REACTORS
330
D1B6
102
}
330
D1B6
100
AcDbXrecord
280
     1
  1

  0
XRECORD
  5
D1B9
102
{ACAD_REACTORS
330
D1B6
102
}
330
D1B6
100
AcDbXrecord
280
     1
  1

  0
XRECORD
  5
D1BF
102
{ACAD_REACTORS
330
D1B6
102
}
330
D1B6
100
AcDbXrecord
280
     1
 90
        0
  0
XRECORD
  5
D1BB
102
{ACAD_REACTORS
330
D1B6
102
}
330
D1B6
100
AcDbXrecord
280
     1
340
19
  0
XRECORD
  5
D1BE
102
{ACAD_REACTORS
330
D1B6
102
}
330
D1B6
100
AcDbXrecord
280
     1
 90
    10781
  0
XRECORD
  5
D1BC
102
{ACAD_REACTORS
330
D1B6
102
}
330
D1B6
100
AcDbXrecord
280
     1
340
18
  0
XRECORD
  5
D1BD
102
{ACAD_REACTORS
330
D1B6
102
}
330
D1B6
100
AcDbXrecord
280
     1
340
E
  0
XRECORD
  5
D1C3
102
{ACAD_REACTORS
330
D1B6
102
}
330
D1B6
100
AcDbXrecord
280
     1
 40
0.0
  0
XRECORD
  5
D1C7
102
{ACAD_REACTORS
330
D1B6
102
}
330
D1B6
100
AcDbXrecord
280
     1
340
0
  0
XRECORD
  5
D1CD
102
{ACAD_REACTORS
330
D1B6
102
}
330
D1B6
100
AcDbXrecord
280
     1
 10
0.0
 20
0.0
 30
0.0
  0
XRECORD
  5
D1C9
102
{ACAD_REACTORS
330
D1B6
102
}
330
D1B6
100
AcDbXrecord
280
     1
 10
0.0
 20
0.0
 30
0.0
  0
XRECORD
  5
D1CC
102
{ACAD_REACTORS
330
D1B6
102
}
330
D1B6
100
AcDbXrecord
280
     1
 10
0.0
 20
0.0
 30
0.0
  0
XRECORD
  5
D1CA
102
{ACAD_REACTORS
330
D1B6
102
}
330
D1B6
100
AcDbXrecord
280
     1
 10
0.0
 20
0.0
 30
0.0
  0
XRECORD
  5
D1CB
102
{ACAD_REACTORS
330
D1B6
102
}
330
D1B6
100
AcDbXrecord
280
     1
 10
0.0
 20
0.0
 30
0.0
  0
XRECORD
  5
D1C8
102
{ACAD_REACTORS
330
D1B6
102
}
330
D1B6
100
AcDbXrecord
280
     1
 10
0.0
 20
0.0
 30
0.0
  0
XRECORD
  5
D1C5
102
{ACAD_REACTORS
330
D1B6
102
}
330
D1B6
100
AcDbXrecord
280
     1
340
0
  0
XRECORD
  5
D1C6
102
{ACAD_REACTORS
330
D1B6
102
}
330
D1B6
100
AcDbXrecord
280
     1
 70
     0
  0
XRECORD
  5
D1BA
102
{ACAD_REACTORS
330
D1B6
102
}
330
D1B6
100
AcDbXrecord
280
     1
  1
monochrome.ctb
  0
XRECORD
  5
D1B7
102
{ACAD_REACTORS
330
D1B6
102
}
330
D1B6
100
AcDbXrecord
280
     1
 90
        1
  0
XRECORD
  5
D1B8
102
{ACAD_REACTORS
330
D1B6
102
}
330
D1B6
100
AcDbXrecord
280
     1
 90
       70
  0
XRECORD
  5
D1D0
102
{ACAD_REACTORS
330
D1B6
102
}
330
D1B6
100
AcDbXrecord
280
     1
340
0
  0
XRECORD
  5
D1D6
102
{ACAD_REACTORS
330
D1B6
102
}
330
D1B6
100
AcDbXrecord
280
     1
 10
0.0
 20
0.0
 30
0.0
  0
XRECORD
  5
D1D2
102
{ACAD_REACTORS
330
D1B6
102
}
330
D1B6
100
AcDbXrecord
280
     1
 10
0.0
 20
0.0
 30
0.0
  0
XRECORD
  5
D1D5
102
{ACAD_REACTORS
330
D1B6
102
}
330
D1B6
100
AcDbXrecord
280
     1
 10
0.0
 20
0.0
 30
0.0
  0
XRECORD
  5
D1D3
102
{ACAD_REACTORS
330
D1B6
102
}
330
D1B6
100
AcDbXrecord
280
     1
 10
0.0
 20
0.0
 30
0.0
  0
XRECORD
  5
D1D4
102
{ACAD_REACTORS
330
D1B6
102
}
330
D1B6
100
AcDbXrecord
280
     1
 10
0.0
 20
0.0
 30
0.0
  0
XRECORD
  5
D1D1
102
{ACAD_REACTORS
330
D1B6
102
}
330
D1B6
100
AcDbXrecord
280
     1
 10
0.0
 20
0.0
 30
0.0
  0
XRECORD
  5
D1CE
102
{ACAD_REACTORS
330
D1B6
102
}
330
D1B6
100
AcDbXrecord
280
     1
340
0
  0
XRECORD
  5
D1CF
102
{ACAD_REACTORS
330
D1B6
102
}
330
D1B6
100
AcDbXrecord
280
     1
 70
     0
  0
XRECORD
  5
D1C2
102
{ACAD_REACTORS
330
D1B6
102
}
330
D1B6
100
AcDbXrecord
280
     1
  1
{B112C8D4-3EAA-4E95-919C-5501D5AD2D83}
  0
DICTIONARYVAR
  5
69CA
102
{ACAD_REACTORS
330
69C9
102
}
330
69C9
100
DictionaryVariables
280
     0
  1
1
  0
ENDSEC
  0
EOF
